<?xml version="1.0" standalone="no"?>
<!DOCTYPE svg PUBLIC "-//W3C//DTD SVG 1.1//EN" "http://www.w3.org/Graphics/SVG/1.1/DTD/svg11.dtd" >
<svg xmlns="http://www.w3.org/2000/svg" xmlns:xlink="http://www.w3.org/1999/xlink" version="1.1">
<defs>
<font id="RisingSun-DemiBold" horiz-adv-x="752" >
  <font-face 
    font-family="Rising Sun DemiBold"
    font-weight="600"
    font-stretch="normal"
    units-per-em="1000"
    panose-1="2 11 7 3 3 1 1 6 0 3"
    ascent="800"
    descent="-200"
    x-height="523"
    cap-height="710"
    bbox="-207 -227 1310 927"
    underline-thickness="50"
    underline-position="-150"
    unicode-range="U+000D-FB06"
  />
<missing-glyph horiz-adv-x="0" 
 />
    <glyph glyph-name="f_f" unicode="ff" horiz-adv-x="620" 
d="M548 646q-24 0 -41.5 -9.5t-28.5 -25.5t-16 -36t-5 -41v-24h147v-85h-147v-425h-110v425h-141v-425h-110v425h-70v85h70v8q1 37 12 71t33 59t53.5 40t72.5 15q35 0 66 -8t57 -20q23 29 56 47t81 18q42 0 69 -12l49 -20l-24 -82q-14 8 -30.5 14t-42.5 6zM347 510
q0 7 0.5 18.5t2 23.5t4 23.5t5.5 17.5q-15 9 -35 12.5t-36 3.5q-44 0 -62.5 -26t-19.5 -63v-10h141z" />
    <glyph glyph-name="f_i" unicode="fi" horiz-adv-x="546" 
d="M96 425h-70v85h70v21q0 41 13 78.5t39 66.5t63.5 46.5t87.5 17.5q57 0 101 -17.5t77 -40.5l-45 -82q-23 20 -56.5 33t-69.5 13q-26 0 -45 -9.5t-31 -25.5t-18 -36t-6 -41v-24h274v-510h-110v425h-164v-425h-110v425z" />
    <glyph glyph-name="f_l" unicode="fl" horiz-adv-x="630" 
d="M633 15q-1 -1 -11 -4.5t-26.5 -7.5t-36.5 -7t-41 -3q-57 0 -89 31t-32 74v438q0 21 -4.5 40.5t-15 35t-28.5 25t-46 9.5q-51 0 -73 -34.5t-24 -88.5v-13h96v-85h-96v-425h-110v425h-70v85h70v30q0 94 53 147t152 53q52 0 91 -13t64.5 -37t38 -57.5t12.5 -73.5v-408
q0 -10 3 -20.5t9.5 -19.5t16 -14.5t22.5 -5.5q9 0 19 2t18.5 4.5t14.5 4.5l6 2z" />
    <glyph glyph-name="f_f_i" unicode="ffi" horiz-adv-x="796" 
d="M96 425h-70v85h70v8q0 36 11 69t33 59t54 41.5t73 15.5q35 0 66 -8t57 -20q26 29 65 47t93 18q53 0 98.5 -17.5t81.5 -40.5l-46 -82q-22 19 -55.5 32.5t-67.5 13.5q-27 0 -46.5 -9.5t-32 -25.5t-18 -36t-5.5 -41v-24h274v-510h-111v425h-163v-425h-110v425h-141v-425
h-110v425zM347 510q0 7 0.5 18.5t2 23.5t4 23.5t5.5 17.5q-15 9 -35 12.5t-36 3.5q-22 0 -37.5 -7.5t-25.5 -20t-14.5 -28.5t-4.5 -33v-10h141z" />
    <glyph glyph-name="f_f_l" unicode="ffl" horiz-adv-x="883" 
d="M771 -7q-57 0 -89.5 31t-32.5 74v440q0 19 -4.5 38.5t-15 35t-28.5 25t-46 9.5q-26 0 -44.5 -10t-30 -27.5t-16.5 -40.5t-5 -49v-9h95v-85h-95v-425h-110v425h-143v-425h-110v425h-70v85h70v8q0 37 12 71t34.5 59t55 40t72.5 15q36 0 65 -8t55 -20q53 65 164 65
q52 0 90.5 -13t64 -37t38 -57.5t12.5 -73.5v-408q0 -10 3 -20.5t9 -19.5t15.5 -14.5t23.5 -5.5q9 0 19 2t18.5 4.5t14.5 4.5t7 2l16 -89q-1 -1 -11 -4.5t-26.5 -7.5t-36.5 -7t-40 -3zM349 510q0 8 0.5 20t1.5 24.5t2.5 23t4.5 16.5q-15 9 -32.5 12t-32.5 3q-22 0 -38 -7.5
t-27 -20t-16.5 -28t-5.5 -31.5v-12h143z" />
    <glyph glyph-name=".notdef" horiz-adv-x="0" 
 />
    <glyph glyph-name=".null" horiz-adv-x="0" 
 />
    <glyph glyph-name="uni000D" unicode="&#xd;" horiz-adv-x="0" 
 />
    <glyph glyph-name="space" unicode=" " horiz-adv-x="247" 
 />
    <glyph glyph-name="exclam" unicode="!" horiz-adv-x="284" 
d="M87 253v464h110v-464h-110zM87 0v137h110v-137h-110z" />
    <glyph glyph-name="quotedbl" unicode="&#x22;" horiz-adv-x="357" 
d="M64 501v220h94v-220h-94zM199 501v220h94v-220h-94z" />
    <glyph glyph-name="numbersign" unicode="#" horiz-adv-x="706" 
d="M669 436h-139l-38 -158h132v-84h-152l-47 -194h-90l48 194h-145l-47 -194h-90l49 194h-113v84h132l38 158h-125v78h145l47 196h90l-48 -196h144l48 196h90l-49 -196h120v-78zM403 278l38 158h-145l-38 -158h145z" />
    <glyph glyph-name="dollar" unicode="$" horiz-adv-x="628" 
d="M509 543q-9 10 -26.5 21.5t-40.5 22t-50.5 18t-56.5 9.5v-207l19 -4q54 -13 97.5 -29t73.5 -39t46.5 -56.5t16.5 -81.5q0 -53 -19 -90.5t-52.5 -62.5t-78 -37.5t-95.5 -13.5v-105h-52v107q-72 5 -137 28.5t-119 65.5l51 96q11 -12 32 -26t49 -27t61.5 -23t69.5 -14v207
q-6 2 -12.5 3.5t-12.5 3.5q-53 14 -92.5 29.5t-65.5 37.5t-39.5 51.5t-13.5 71.5q0 49 17 87t48 65.5t72.5 43t91.5 19.5v101h52v-101q65 -4 120 -26t97 -53zM468 185q0 44 -35 66.5t-98 40.5v-198q64 1 98.5 24t34.5 67zM179 517q0 -42 29.5 -63t89.5 -37v197
q-61 -3 -90 -28.5t-29 -68.5z" />
    <glyph glyph-name="percent" unicode="%" horiz-adv-x="758" 
d="M195 423q-33 0 -62 11.5t-50.5 31.5t-34 47t-12.5 58t12.5 58t34 47.5t50.5 32t62 11.5t62 -11.5t50.5 -32t34 -47.5t12.5 -58t-12.5 -58t-34 -47t-50.5 -31.5t-62 -11.5zM195 480q17 0 31.5 7.5t25.5 20t17.5 29t6.5 34.5q0 19 -6.5 36t-17.5 29.5t-26 19.5t-31 7
q-34 0 -57.5 -27.5t-23.5 -64.5q0 -19 6.5 -35.5t17.5 -29t25.5 -19.5t31.5 -7zM563 -10q-33 0 -62 11.5t-50.5 32t-34 47.5t-12.5 58t12.5 58t34 47t50.5 31.5t62 11.5t62 -11.5t50.5 -31.5t34 -47t12.5 -58t-12.5 -58t-34 -47.5t-50.5 -32t-62 -11.5zM563 47q34 0 57.5 27
t23.5 65q0 19 -6.5 35.5t-18 29t-26 19.5t-30.5 7q-17 0 -31.5 -7.5t-25.5 -20t-17.5 -29t-6.5 -34.5q0 -19 6.5 -36t17.5 -29.5t25.5 -19.5t31.5 -7zM81 40l281 333l264 343l52 -45l-276 -329l-270 -348z" />
    <glyph glyph-name="ampersand" unicode="&#x26;" horiz-adv-x="696" 
d="M548 0l-65 68q-44 -38 -96.5 -58t-109.5 -20q-52 0 -95 16t-74 43.5t-48 65t-17 79.5q0 34 10.5 63t28.5 54t42 46t50 39q-23 25 -38.5 46t-25 39.5t-14 36t-4.5 36.5q0 36 14.5 66.5t39.5 52.5t59.5 34t74.5 12q36 0 69 -10t58 -29t39.5 -47.5t14.5 -64.5
q0 -30 -10.5 -55t-28.5 -47.5t-42.5 -43t-52.5 -39.5l160 -168q17 35 26.5 75.5t9.5 86.5h90q-1 -68 -17 -125.5t-45 -103.5l142 -148h-145zM289 77q37 0 71.5 14t63.5 40l-184 195q-41 -29 -66 -61t-25 -72q0 -26 11 -47.5t30.5 -36.5t44.5 -23.5t54 -8.5zM193 557
q0 -10 3 -19.5t10.5 -21.5t20.5 -27l34 -37q46 29 72.5 55.5t26.5 58.5t-22.5 51.5t-57.5 19.5q-38 0 -62.5 -23.5t-24.5 -56.5z" />
    <glyph glyph-name="quotesingle" unicode="'" horiz-adv-x="222" 
d="M64 500v221h94v-221h-94z" />
    <glyph glyph-name="parenleft" unicode="(" horiz-adv-x="296" 
d="M38 346q0 51 11.5 101t31 100.5t46 101t56.5 101.5l85 -36q-18 -26 -40 -68.5t-41.5 -93t-32.5 -105t-13 -104.5q0 -79 33.5 -168t90.5 -181l-80 -41q-63 94 -105 193.5t-42 199.5z" />
    <glyph glyph-name="parenright" unicode=")" horiz-adv-x="296" 
d="M257 346q0 -100 -41.5 -199.5t-104.5 -193.5l-81 41q57 92 91 181t34 168q0 50 -13.5 104.5t-33 105t-41.5 93t-39 68.5l84 36q30 -51 56.5 -101.5t46 -101t31 -100.5t11.5 -101z" />
    <glyph glyph-name="asterisk" unicode="*" horiz-adv-x="337" 
d="M80 530l45 67l-70 22l16 50l71 -29l-4 76h61l-4 -76l71 29l15 -50l-69 -22l45 -67l-44 -30l-44 71l-45 -71z" />
    <glyph glyph-name="plus" unicode="+" horiz-adv-x="419" 
d="M370 399v-88h-111v-121h-99v121h-111v88h111v121h99v-121h111z" />
    <glyph glyph-name="comma" unicode="," horiz-adv-x="221" 
d="M73 -97l24 103h-36v122h99v-122l-35 -103h-52z" />
    <glyph glyph-name="hyphen" unicode="-" horiz-adv-x="421" 
d="M61 224v99h299v-99h-299z" />
    <glyph glyph-name="period" unicode="." horiz-adv-x="213" 
d="M61 0v128h91v-128h-91z" />
    <glyph glyph-name="slash" unicode="/" horiz-adv-x="664" 
d="M636 710l-487 -710h-122l487 710h122z" />
    <glyph glyph-name="zero" unicode="0" horiz-adv-x="695" 
d="M348 -10q-75 1 -132 35t-95 86t-57.5 115.5t-19.5 123.5q0 64 21 128.5t60.5 116t95.5 83.5t127 32q75 0 131.5 -34.5t95 -87.5t57.5 -116.5t19 -121.5q0 -65 -21 -129t-60.5 -115t-95.5 -83t-126 -33zM158 350q1 -45 13.5 -91.5t36 -83.5t58.5 -60.5t82 -23.5
q49 0 84.5 25t58.5 63t34.5 84t11.5 87q0 45 -12.5 91.5t-36.5 83.5t-59 60.5t-81 23.5q-49 0 -85 -25t-59 -63.5t-34.5 -84t-11.5 -86.5z" />
    <glyph glyph-name="one" unicode="1" horiz-adv-x="465" 
d="M443 99v-99h-377v99h137v506q-8 -12 -26.5 -26.5t-41.5 -28t-47.5 -22.5t-44.5 -9v102q27 0 55 14.5t51 32t38 32.5t16 17h113v-618h127z" />
    <glyph glyph-name="two" unicode="2" horiz-adv-x="599" 
d="M44 0q0 70 11 121t33.5 89.5t57.5 67t84 52.5l67 31q34 15 61.5 34t45 45t17.5 65q0 49 -30.5 81t-90.5 32q-32 0 -59.5 -8.5t-51 -22t-41.5 -29.5t-30 -31l-70 73q10 13 32.5 33t56 39t78 33t98.5 14q57 0 100.5 -16.5t72.5 -45t44 -67t15 -83.5q0 -48 -16 -82.5
t-42.5 -60t-60.5 -45t-70 -37.5q-45 -21 -76 -41t-50.5 -41.5t-28 -46t-8.5 -54.5h353v-99h-502z" />
    <glyph glyph-name="three" unicode="3" horiz-adv-x="585" 
d="M277 -9q-90 0 -152 39.5t-81 108.5l60 70q2 -18 14.5 -38.5t34 -37.5t52.5 -28.5t70 -11.5q31 0 58 7.5t47 22t31.5 34.5t11.5 46q0 57 -56.5 86t-156.5 29h-34v93h34q87 0 141 26t54 81q0 25 -11 44.5t-29 33t-40.5 20t-45.5 6.5q-63 0 -104.5 -27.5t-58.5 -61.5l-72 79
q16 25 41.5 45t56.5 33.5t66 21t70 7.5q52 0 97 -15t77 -41.5t50.5 -62t18.5 -77.5q0 -60 -35.5 -99t-100.5 -54q35 -6 63 -23t48 -41t30.5 -54.5t10.5 -63.5q0 -48 -22 -85t-58 -62t-83 -37.5t-97 -12.5z" />
    <glyph glyph-name="four" unicode="4" horiz-adv-x="581" 
d="M344 0v172h-317v98l351 440h76v-439h88v-99h-88v-172h-110zM139 271h217v272z" />
    <glyph glyph-name="five" unicode="5" horiz-adv-x="563" 
d="M291 456q50 0 92.5 -17t74 -47t49 -71.5t17.5 -91.5q0 -53 -19.5 -97t-54 -75.5t-81 -49t-101.5 -17.5q-77 0 -138 34.5t-93 94.5l66 63q28 -43 72 -68.5t94 -25.5q31 0 57 10t45 28t29.5 43.5t10.5 56.5q0 30 -10.5 55t-28.5 42.5t-42.5 27.5t-52.5 10q-38 0 -71.5 -17
t-53.5 -48h-98q1 4 4.5 24t9.5 50l13 67q7 37 15 75l39 198h347v-101h-267l-36 -193q17 19 45.5 29.5t66.5 10.5z" />
    <glyph glyph-name="six" unicode="6" horiz-adv-x="607" 
d="M564 236q0 -51 -19.5 -96t-54 -78.5t-81.5 -52.5t-101 -19q-59 0 -107 21.5t-82 62t-52.5 99t-18.5 132.5q0 102 19.5 178.5t54.5 128t85 77.5t112 26q68 0 124.5 -31t91.5 -88l-65 -68q-23 42 -63.5 66.5t-89.5 24.5q-75 0 -119.5 -63.5t-46.5 -178.5q22 45 66 71
t101 26q52 0 97 -18.5t78 -50.5t52 -75.5t19 -93.5zM308 84q31 0 58.5 12t48 33t32.5 48.5t12 58.5t-12 58t-32.5 47.5t-48 32.5t-58.5 12t-58.5 -12t-48 -32.5t-32.5 -47.5t-12 -58t12 -58.5t32.5 -48.5t48 -33t58.5 -12z" />
    <glyph glyph-name="seven" unicode="7" horiz-adv-x="548" 
d="M377 609h-344v101h518l-356 -710h-124z" />
    <glyph glyph-name="eight" unicode="8" horiz-adv-x="601" 
d="M554 205q0 -48 -20.5 -87.5t-55.5 -67.5t-81 -43t-98 -15q-53 0 -99.5 16.5t-80.5 45.5t-53.5 69t-19.5 87q0 31 11 58t28.5 48.5t39.5 37.5t44 26q-41 18 -70 55t-29 84q0 46 21 81.5t54 60t74 37t81 12.5t81.5 -12.5t75 -36.5t54.5 -59.5t21 -81.5q0 -47 -29.5 -84.5
t-71.5 -55.5q24 -11 46.5 -27.5t39.5 -39t27 -49.5t10 -59zM443 212q0 29 -12.5 51.5t-33 38.5t-46 24t-51.5 8q-27 0 -52.5 -8.5t-45 -24.5t-31.5 -38.5t-12 -50.5t12.5 -50.5t32.5 -38t45.5 -24t51.5 -8.5q27 0 52.5 9t45.5 25t32 38t12 49zM181 515q0 -24 11 -42t28 -30
t38 -18.5t42 -6.5t42.5 6.5t38.5 19t28 31t11 42.5q0 22 -10 39.5t-26.5 30t-38 19t-45.5 6.5t-45.5 -7t-38 -19.5t-26 -30.5t-9.5 -40z" />
    <glyph glyph-name="nine" unicode="9" horiz-adv-x="606" 
d="M42 469q0 52 20 97t54.5 78t81.5 52t101 19q59 0 107 -21.5t81.5 -62t52 -98.5t18.5 -132q0 -102 -19 -178.5t-54.5 -128.5t-85.5 -78t-111 -26q-69 0 -125.5 31.5t-91.5 88.5l65 68q23 -42 64 -66.5t89 -24.5q75 0 120 63t46 178q-21 -45 -65.5 -71t-101.5 -26
q-52 0 -97 18.5t-78 50.5t-52 75.5t-19 93.5zM298 622q-31 0 -58 -12t-47.5 -33t-32.5 -48.5t-12 -58.5t12 -58t32.5 -47.5t48 -32.5t58.5 -12t58.5 12t48 32t32.5 47.5t12 57.5q0 31 -12 59t-33 49t-48.5 33t-58.5 12z" />
    <glyph glyph-name="colon" unicode=":" horiz-adv-x="223" 
d="M66 391v127h91v-127h-91zM66 0v128h91v-128h-91z" />
    <glyph glyph-name="semicolon" unicode=";" horiz-adv-x="239" 
d="M71 391v127h90v-127h-90zM82 -97l24 103h-36v122h99v-122l-35 -103h-52z" />
    <glyph glyph-name="less" unicode="&#x3c;" horiz-adv-x="512" 
d="M33 284l420 254v-117l-261 -162l261 -158v-122l-420 250v55z" />
    <glyph glyph-name="equal" unicode="=" horiz-adv-x="438" 
d="M64 162v73h309v-73h-309zM64 317v73h309v-73h-309z" />
    <glyph glyph-name="greater" unicode="&#x3e;" horiz-adv-x="512" 
d="M480 229l-421 -250v122l261 158l-261 162v117l421 -254v-55z" />
    <glyph glyph-name="question" unicode="?" horiz-adv-x="482" 
d="M133 221q0 52 17.5 92t65.5 69l40 23q23 12 44 29t35.5 40t14.5 54q0 24 -9.5 43t-24.5 32t-35 19.5t-41 6.5q-24 0 -44 -7.5t-37 -20t-30.5 -28.5t-22.5 -32l-72 49q27 62 84 95.5t125 33.5q37 0 73.5 -11.5t65.5 -35t46.5 -60.5t17.5 -88q0 -35 -9 -60.5t-24.5 -46
t-37 -36t-45.5 -28.5l-39 -23q-19 -11 -33.5 -26t-23.5 -35t-9 -48h-92zM133 0v126h92v-126h-92z" />
    <glyph glyph-name="at" unicode="@" horiz-adv-x="843" 
d="M420 603q74 0 141 -26t118 -74.5t81.5 -119.5t30.5 -161q0 -14 -1.5 -37.5t-6.5 -49.5t-15 -53t-27 -49t-42 -35.5t-60 -13.5q-26 0 -43 7.5t-27 19.5t-14.5 27.5t-6.5 31.5q-29 -31 -73.5 -50.5t-96.5 -19.5q-74 0 -113 39t-39 99q0 40 16.5 67.5t43 44t60 23.5t66.5 7
q42 0 73 -8t46 -14q0 30 -5 55t-18.5 43t-36.5 28t-58 10q-41 0 -75.5 -12t-60.5 -33l-22 60q37 24 79 37t89 13q61 0 96.5 -19.5t53 -49.5t22 -67t4.5 -71v-108q0 -22 1.5 -41.5t6.5 -34.5t15 -23.5t27 -8.5q28 0 46.5 20.5t28.5 50t14 62t4 55.5q0 71 -24 132t-67 105.5
t-103 70t-131 25.5q-70 0 -129 -24.5t-102.5 -68t-68 -103.5t-24.5 -131q0 -68 23 -128t64.5 -105t99.5 -71t128 -26q47 0 82.5 10.5t72.5 27.5l16 -44q-42 -20 -85 -30t-87 -10q-75 0 -141 27.5t-115.5 77.5t-78 119t-28.5 152q0 87 31 156.5t83 117.5t120 73.5t142 25.5z
M474 81q33 16 44.5 38.5t11.5 46.5v38q-14 3 -45 12t-73 9q-49 0 -83.5 -19t-34.5 -65q0 -35 24 -58t66 -23q22 0 46 6t44 15z" />
    <glyph glyph-name="A" unicode="A" horiz-adv-x="675" 
d="M289 710h98l280 -710h-118l-75 193h-274l-74 -193h-119zM452 276l-114 305l-118 -305h232z" />
    <glyph glyph-name="B" unicode="B" horiz-adv-x="675" 
d="M638 183q0 -43 -17.5 -77t-47 -57.5t-69.5 -36t-85 -12.5h-339v710h366q37 0 67 -16t51 -41.5t32.5 -58t11.5 -65.5q0 -52 -26.5 -97.5t-75.5 -67.5q61 -18 96.5 -65.5t35.5 -115.5zM523 204q0 22 -7.5 42t-20 35t-30.5 24t-39 9h-234v-217h227q22 0 41 8.5t33 23t22 34
t8 41.5zM192 613v-209h206q21 0 38.5 8t31 21.5t21 32.5t7.5 42q0 46 -26 75.5t-66 29.5h-212z" />
    <glyph glyph-name="C" unicode="C" horiz-adv-x="684" 
d="M35 360q0 64 23 127.5t67.5 114t108.5 81.5t145 31q97 0 166 -43t104 -112l-88 -59q-15 32 -36 54t-46 35t-52 18.5t-52 5.5q-56 0 -98 -22.5t-70.5 -59.5t-43 -83t-14.5 -92q0 -52 17 -99t47.5 -83t72.5 -57.5t92 -21.5q26 0 53.5 6.5t53 21t47 36.5t35.5 53l93 -53
q-17 -40 -48 -70.5t-70 -51.5t-82.5 -32t-85.5 -11q-75 0 -137 32t-107 83.5t-70 117t-25 133.5z" />
    <glyph glyph-name="D" unicode="D" horiz-adv-x="716" 
d="M80 0v710h252q86 0 150.5 -28t108 -76t65.5 -112.5t22 -137.5q0 -81 -24.5 -146.5t-69.5 -112t-109 -72t-143 -25.5h-252zM564 356q0 56 -15.5 103t-45.5 80.5t-73 52.5t-98 19h-140v-512h140q56 0 99.5 19.5t73 54t44.5 81.5t15 102z" />
    <glyph glyph-name="E" unicode="E" horiz-adv-x="603" 
d="M567 99v-99h-487v710h478v-99h-366v-202h317v-93h-317v-217h375z" />
    <glyph glyph-name="F" unicode="F" horiz-adv-x="579" 
d="M80 0v710h473v-99h-361v-212h302v-93h-302v-306h-112z" />
    <glyph glyph-name="G" unicode="G" horiz-adv-x="719" 
d="M577 88q-90 -93 -207 -93q-71 0 -132 29.5t-106 79.5t-70.5 116t-25.5 138t25.5 137t70.5 114t107 77.5t135 28.5q102 0 171 -42.5t104 -112.5l-86 -62q-29 58 -80 87t-112 29q-50 0 -91 -21.5t-70 -57t-44.5 -82.5t-15.5 -98q0 -54 17.5 -101t48 -82t72.5 -55.5
t91 -20.5q54 0 103.5 25t94.5 79v76h-149v83h243v-359h-94v88z" />
    <glyph glyph-name="H" unicode="H" horiz-adv-x="743" 
d="M663 710v-710h-113v313h-358v-313h-112v710h112v-297h358v297h113z" />
    <glyph glyph-name="I" unicode="I" horiz-adv-x="272" 
d="M80 0v710h112v-710h-112z" />
    <glyph glyph-name="J" unicode="J" horiz-adv-x="488" 
d="M37 125q17 -12 50.5 -23.5t76.5 -11.5q46 0 73.5 16.5t42 49t19 81t4.5 112.5v361h113v-361q0 -81 -8 -147.5t-34 -113.5t-76 -73t-134 -26q-90 0 -154 44z" />
    <glyph glyph-name="K" unicode="K" horiz-adv-x="660" 
d="M80 0v709h112v-365l334 366h124l-280 -314l296 -396h-125l-240 327l-109 -113v-214h-112z" />
    <glyph glyph-name="L" unicode="L" horiz-adv-x="584" 
d="M80 0v710h112v-611h381v-99h-493z" />
    <glyph glyph-name="M" unicode="M" horiz-adv-x="870" 
d="M677 0v511l-211 -387h-62l-212 387v-511h-112v710h120l235 -434l235 434h120v-710h-113z" />
    <glyph glyph-name="N" unicode="N" horiz-adv-x="767" 
d="M192 500v-500h-112v710h88l406 -512v511h113v-709h-93z" />
    <glyph glyph-name="O" unicode="O" 
d="M375 -5q-76 0 -138.5 30.5t-107.5 81t-69.5 115.5t-24.5 133q0 71 26 136t71.5 115t108 79.5t136.5 29.5q76 0 138.5 -31.5t107 -82.5t69 -115.5t24.5 -131.5q0 -71 -25.5 -136t-71.5 -114.5t-108.5 -79t-135.5 -29.5zM149 355q0 -50 16 -97t45.5 -83t71.5 -57.5
t94 -21.5q54 0 95.5 22.5t70.5 59.5t44 83t15 94q0 51 -16 97.5t-45.5 82t-71 57t-92.5 21.5q-54 0 -96 -22.5t-71 -58.5t-44.5 -82.5t-15.5 -94.5z" />
    <glyph glyph-name="P" unicode="P" horiz-adv-x="623" 
d="M80 0v710h298q48 0 88.5 -20t69.5 -52.5t45.5 -74t16.5 -84.5q0 -45 -15.5 -86.5t-43.5 -74t-67.5 -52t-87.5 -19.5h-192v-247h-112zM192 346h185q24 0 43.5 10t33.5 28t22 42t8 53q0 30 -9 54t-25 41.5t-36.5 27t-42.5 9.5h-179v-265z" />
    <glyph glyph-name="Q" unicode="Q" horiz-adv-x="750" 
d="M560 52q-40 -27 -86.5 -42t-98.5 -15q-76 0 -138.5 31t-107.5 81t-69.5 115t-24.5 133q0 71 26 136t71.5 115t108 79.5t136.5 29.5q76 0 138.5 -31.5t107 -82.5t69 -115.5t24.5 -131.5q0 -71 -25 -134.5t-70 -113.5l93 -106h-108zM376 96q33 0 62 9t53 25l-101 117h108
l51 -59q26 35 39 78.5t13 88.5q0 51 -16 97.5t-45.5 82.5t-71 57.5t-92.5 21.5q-54 0 -96 -22.5t-71 -59t-44.5 -83t-15.5 -94.5q0 -50 16 -97t45.5 -83t71.5 -57.5t94 -21.5z" />
    <glyph glyph-name="R" unicode="R" horiz-adv-x="661" 
d="M80 0v710h309q48 0 88.5 -20t69.5 -52.5t45.5 -74t16.5 -84.5q0 -36 -10 -69t-28 -61t-44 -48.5t-57 -30.5l167 -270h-127l-154 247h-164v-247h-112zM192 346h196q24 0 43.5 10.5t33.5 29t22 42.5t8 51t-9.5 51t-25 42t-36 28.5t-42.5 10.5h-190v-265z" />
    <glyph glyph-name="S" unicode="S" horiz-adv-x="611" 
d="M500 543q-10 11 -29 23.5t-44.5 23.5t-56 18t-62.5 7q-71 0 -104.5 -26t-33.5 -72q0 -26 10.5 -42.5t32.5 -29t55 -22t77 -20.5q54 -13 97.5 -29t73.5 -39t46.5 -56.5t16.5 -81.5q0 -54 -20.5 -93t-56 -63.5t-82.5 -36t-101 -11.5q-81 0 -156.5 24.5t-136.5 71.5l51 96
q13 -13 37.5 -29t57 -29.5t70.5 -23t79 -9.5q66 0 102 23t36 68q0 27 -13.5 45t-38.5 31.5t-61 24.5t-82 23q-53 14 -92.5 29.5t-65.5 37.5t-39.5 51.5t-13.5 71.5q0 52 20 92.5t54.5 68t81.5 41.5t102 14q72 0 133 -23t107 -57z" />
    <glyph glyph-name="T" unicode="T" horiz-adv-x="616" 
d="M601 611h-236v-611h-113v611h-237v99h586v-99z" />
    <glyph glyph-name="U" unicode="U" 
d="M376 96q56 0 93 22t59.5 57.5t32 81t9.5 93.5v360h113v-360q0 -73 -17 -137.5t-54 -113t-95.5 -76.5t-140.5 -28q-85 0 -143.5 29.5t-94.5 79t-52 113.5t-16 133v360h112v-360q0 -49 9.5 -94.5t32 -81t60 -57t92.5 -21.5z" />
    <glyph glyph-name="V" unicode="V" horiz-adv-x="678" 
d="M125 710l214 -569l213 569h119l-284 -710h-96l-285 710h119z" />
    <glyph glyph-name="W" unicode="W" horiz-adv-x="1051" 
d="M332 707h106l87 -241l88 241h105l-121 -316l106 -261l221 580h123l-293 -710h-96l-132 318l-133 -318h-96l-293 710h122l222 -580l106 261z" />
    <glyph glyph-name="X" unicode="X" horiz-adv-x="641" 
d="M124 710l197 -280l197 280h123l-260 -360l252 -350h-123l-189 270l-189 -270h-124l253 350l-261 360h124z" />
    <glyph glyph-name="Y" unicode="Y" horiz-adv-x="657" 
d="M132 710l196 -356l198 356h123l-265 -456v-254h-112v256l-263 454h123z" />
    <glyph glyph-name="Z" unicode="Z" horiz-adv-x="629" 
d="M31 86l431 525h-421v99h552v-86l-421 -525h422v-99h-563v86z" />
    <glyph glyph-name="bracketleft" unicode="[" horiz-adv-x="292" 
d="M83 -40v780h163v-89h-61v-602h61v-89h-163z" />
    <glyph glyph-name="backslash" unicode="\" horiz-adv-x="612" 
d="M150 710l435 -710h-122l-436 710h123z" />
    <glyph glyph-name="bracketright" unicode="]" horiz-adv-x="292" 
d="M46 -40v89h61v602h-61v89h163v-780h-163z" />
    <glyph glyph-name="asciicircum" unicode="^" horiz-adv-x="569" 
d="M41 303l198 407h92l197 -407h-92l-151 312l-154 -312h-90z" />
    <glyph glyph-name="underscore" unicode="_" horiz-adv-x="490" 
d="M59 -99v99h372v-99h-372z" />
    <glyph glyph-name="grave" unicode="`" horiz-adv-x="243" 
d="M47 730h105l57 -110l-70 -22z" />
    <glyph glyph-name="a" unicode="a" horiz-adv-x="564" 
d="M205 -10q-38 0 -70.5 12.5t-56 34.5t-37 52t-13.5 65q0 37 16 67t45.5 52t70 34t89.5 12q37 0 73 -6.5t65 -17.5v36q0 58 -33 90.5t-95 32.5q-42 0 -82.5 -15.5t-83.5 -44.5l-34 70q101 68 210 68q108 0 168 -55t60 -158v-189q0 -35 29 -36v-94q-16 -3 -27.5 -4t-22.5 -1
q-32 0 -49.5 16t-21.5 41l-3 33q-35 -46 -86.5 -70.5t-110.5 -24.5zM235 71q40 0 75.5 14.5t55.5 40.5q21 18 21 38v69q-28 11 -59.5 17t-61.5 6q-59 0 -96.5 -25.5t-37.5 -67.5q0 -39 29 -65.5t74 -26.5z" />
    <glyph glyph-name="b" unicode="b" horiz-adv-x="628" 
d="M348 -10q-60 0 -108.5 28.5t-76.5 76.5v-95h-97v730h110v-306q31 50 77.5 79t109.5 29q52 0 95 -22.5t73.5 -60t47 -87t16.5 -103.5q0 -56 -19 -105t-52 -85.5t-78.5 -57.5t-97.5 -21zM319 84q36 0 66 14.5t51.5 38.5t33.5 55.5t12 66.5t-11.5 67.5t-32 57t-49 39.5
t-62.5 15q-51 0 -90.5 -33t-60.5 -80v-138q6 -23 21 -41.5t35 -32.5t43 -21.5t44 -7.5z" />
    <glyph glyph-name="c" unicode="c" horiz-adv-x="559" 
d="M32 262q0 55 19 104t54.5 86t85.5 58.5t112 21.5q81 0 139.5 -35.5t87.5 -94.5l-107 -34q-19 33 -51 51.5t-71 18.5q-33 0 -61.5 -13t-49.5 -36.5t-33 -55.5t-12 -71q0 -38 12.5 -70.5t34 -56.5t50 -37.5t60.5 -13.5q20 0 40 5.5t36.5 15.5t29 23t18.5 28l108 -32
q-26 -59 -87 -96.5t-144 -37.5q-61 0 -111 22t-85.5 59.5t-55 86.5t-19.5 104z" />
    <glyph glyph-name="d" unicode="d" horiz-adv-x="637" 
d="M279 -10q-53 0 -98 21.5t-78 58.5t-51.5 86.5t-18.5 106.5q0 55 17.5 103.5t49 85.5t74 58.5t93.5 21.5q63 0 111 -30.5t75 -77.5v306h110v-600q0 -19 6.5 -27t23.5 -9v-94q-17 -3 -27.5 -4t-17.5 -1q-33 0 -54 17t-23 44l-2 39q-29 -49 -79 -77t-111 -28zM306 84
q24 0 48 8t44 22t34.5 33t20.5 41v137q-9 25 -25.5 46t-37.5 36t-44.5 23t-47.5 8q-33 0 -60.5 -15t-47.5 -40t-31.5 -57t-11.5 -66q0 -36 12.5 -68t34.5 -56t50.5 -38t61.5 -14z" />
    <glyph glyph-name="e" unicode="e" horiz-adv-x="595" 
d="M303 -10q-61 0 -111 21.5t-85.5 58.5t-55 86t-19.5 104t19.5 104.5t55 87t85.5 59t112 21.5q61 0 110.5 -22t84.5 -58.5t53.5 -85t18.5 -101.5q0 -12 -1 -22.5t-2 -17.5h-419q3 -35 16.5 -63t35 -48.5t49 -31.5t57.5 -11q22 0 43.5 5.5t39.5 16t32 25.5t22 33l94 -27
q-27 -59 -89.5 -96.5t-145.5 -37.5zM462 301q-3 33 -16.5 61t-34.5 47.5t-49 30.5t-59 11t-58.5 -11t-48.5 -30.5t-34 -47.5t-16 -61h316z" />
    <glyph glyph-name="f" unicode="f" horiz-adv-x="356" 
d="M96 0v425h-70v85h70v21q0 97 45 153t122 56q32 0 63 -8.5t59 -23.5l-24 -82q-15 9 -35.5 15t-39.5 6q-39 0 -59.5 -29t-20.5 -84v-24h134v-85h-134v-425h-110z" />
    <glyph glyph-name="g" unicode="g" horiz-adv-x="629" 
d="M273 -5q-53 0 -97 21.5t-75.5 58.5t-49 85t-17.5 101q0 56 18 105.5t50 86t76.5 58t98.5 21.5q63 0 110.5 -30t78.5 -78v99h97v-508q0 -57 -21 -101t-58.5 -74.5t-88.5 -46.5t-110 -16q-87 0 -144.5 29.5t-96.5 82.5l62 58q30 -42 77.5 -64t101.5 -22q34 0 64.5 9
t53.5 28t36.5 48t13.5 69v80q-28 -48 -77 -74t-103 -26zM309 84q25 0 48 8.5t42.5 23t33.5 33t20 39.5v137q-10 25 -26 45.5t-36.5 35.5t-43.5 23.5t-46 8.5q-36 0 -64.5 -15.5t-48.5 -41t-31 -57.5t-11 -66q0 -36 12.5 -67.5t34.5 -55t51.5 -37.5t64.5 -14z" />
    <glyph glyph-name="h" unicode="h" horiz-adv-x="597" 
d="M535 0h-110v293q0 72 -25.5 106.5t-73.5 34.5q-23 0 -46 -9t-43.5 -25.5t-36.5 -39t-24 -49.5v-311h-110v730h110v-312q30 54 81.5 84t112.5 30q49 0 80.5 -17.5t50.5 -46.5t26.5 -67.5t7.5 -81.5v-319z" />
    <glyph glyph-name="i" unicode="i" horiz-adv-x="242" 
d="M66 0v523h110v-523h-110zM66 609v121h110v-121h-110z" />
    <glyph glyph-name="j" unicode="j" horiz-adv-x="248" 
d="M11 -191q-36 0 -68 11t-58 34l49 74q13 -12 30 -17.5t34 -5.5q29 0 51.5 21.5t22.5 54.5v542h110v-534q0 -40 -13.5 -73t-37 -57t-54.5 -37t-66 -13zM72 609v121h110v-121h-110z" />
    <glyph glyph-name="k" unicode="k" horiz-adv-x="548" 
d="M430 0l-167 241l-87 -82v-159h-110v730h110v-463l240 255h120l-203 -219l214 -303h-117z" />
    <glyph glyph-name="l" unicode="l" horiz-adv-x="301" 
d="M67 730h110v-579q0 -29 15 -45.5t42 -16.5q11 0 25.5 4t27.5 9l16 -86q-24 -11 -57 -17.5t-59 -6.5q-57 0 -88.5 31t-31.5 88v619z" />
    <glyph glyph-name="m" unicode="m" horiz-adv-x="927" 
d="M866 0h-110v293q0 73 -24 107t-70 34q-47 0 -85.5 -34.5t-55.5 -89.5v-310h-110v293q0 74 -24 107.5t-69 33.5q-47 0 -86 -34t-56 -89v-311h-110v523h100v-105q31 55 81.5 84.5t115.5 29.5t102.5 -34t46.5 -85q33 58 83 88.5t114 30.5q46 0 76.5 -17.5t48.5 -46.5
t25 -67.5t7 -81.5v-319z" />
    <glyph glyph-name="n" unicode="n" horiz-adv-x="597" 
d="M535 0h-110v293q0 74 -23.5 107.5t-69.5 33.5q-24 0 -48 -9t-45 -25.5t-37.5 -39t-25.5 -49.5v-311h-110v523h100v-105q30 53 87 83.5t126 30.5q47 0 77 -17t47.5 -46.5t24.5 -68t7 -81.5v-319z" />
    <glyph glyph-name="o" unicode="o" horiz-adv-x="602" 
d="M301 -10q-62 0 -111.5 22t-84.5 59t-54 86.5t-19 103.5t19 103.5t54.5 86.5t85 59t110.5 22t110.5 -22t85 -59t54.5 -86.5t19 -103.5t-19 -103.5t-54.5 -86.5t-85 -59t-110.5 -22zM145 260q0 -38 12 -70t33 -55.5t49.5 -37t61.5 -13.5t61.5 13.5t49.5 37.5t33 56t12 70
q0 37 -12 69.5t-33 56.5t-49.5 37.5t-61.5 13.5q-32 0 -60.5 -14t-49.5 -38t-33.5 -56.5t-12.5 -69.5z" />
    <glyph glyph-name="p" unicode="p" horiz-adv-x="628" 
d="M363 -10q-63 0 -111 30t-76 78v-311h-110v736h97v-94q30 47 77.5 75t107.5 28q54 0 99 -22t78 -59t51.5 -86t18.5 -103q0 -57 -17 -106.5t-48 -86t-73.5 -58t-93.5 -21.5zM327 84q35 0 63.5 15t49 40t31.5 57t11 66q0 36 -12.5 68t-34 56t-51.5 38t-65 14q-21 0 -44 -8
t-43 -22t-35 -32.5t-21 -40.5v-137q10 -24 26 -45t35.5 -36t42.5 -24t47 -9z" />
    <glyph glyph-name="q" unicode="q" horiz-adv-x="628" 
d="M265 -10q-51 0 -93.5 22t-73 59t-47.5 86.5t-17 104.5q0 56 18.5 105t51.5 86t78 58t98 21q60 0 108 -29t77 -75v95h97v-601q0 -19 7.5 -26.5t24.5 -9.5v-94q-15 -2 -30.5 -3t-28.5 -1q-34 0 -58.5 23t-24.5 57v230q-32 -54 -79.5 -81t-107.5 -27zM305 84q50 0 86.5 28.5
t60.5 71.5v138q-5 24 -20 45t-35.5 36.5t-44.5 25t-47 9.5q-35 0 -64 -15t-50 -40t-33 -57.5t-12 -66.5q0 -36 12 -68t33 -55.5t50 -37.5t64 -14z" />
    <glyph glyph-name="r" unicode="r" horiz-adv-x="374" 
d="M360 428q-64 -2 -113.5 -29.5t-70.5 -78.5v-320h-110v523h102v-117q27 54 70.5 86.5t93.5 35.5h17q6 0 11 -1v-99z" />
    <glyph glyph-name="s" unicode="s" horiz-adv-x="496" 
d="M256 -10q-63 0 -125.5 20.5t-107.5 58.5l44 70q47 -34 93 -51.5t94 -17.5q49 0 77.5 19t28.5 54q0 33 -32 48t-100 33q-49 13 -84 25t-57 28t-32 37t-10 51q0 40 15.5 71t43 52.5t64.5 32.5t80 11q59 0 110 -18t91 -52l-47 -66q-73 58 -155 58q-42 0 -70.5 -17.5
t-28.5 -55.5q0 -16 6 -27t19.5 -19t35 -14.5t53.5 -14.5q53 -13 91.5 -26t63.5 -30.5t37 -41t12 -56.5q0 -75 -56.5 -118.5t-153.5 -43.5z" />
    <glyph glyph-name="t" unicode="t" horiz-adv-x="367" 
d="M357 27q-21 -10 -58 -22.5t-79 -12.5q-26 0 -49 7t-40.5 21t-27.5 36.5t-10 54.5v327h-69v85h69v172h110v-172h114v-85h-114v-292q2 -28 17.5 -40.5t38.5 -12.5t44 8t31 13z" />
    <glyph glyph-name="u" unicode="u" horiz-adv-x="609" 
d="M227 -10q-82 0 -124 53.5t-42 159.5v320h110v-298q0 -141 100 -141q47 0 89 29t65 84v326h110v-393q0 -19 6.5 -27t23.5 -9v-94q-17 -3 -28 -4t-21 -1q-30 0 -51 16.5t-22 42.5l-2 52q-35 -57 -91 -86.5t-123 -29.5z" />
    <glyph glyph-name="v" unicode="v" horiz-adv-x="543" 
d="M213 0l-200 523h113l150 -430l151 430h104l-200 -523h-118z" />
    <glyph glyph-name="w" unicode="w" horiz-adv-x="830" 
d="M718 523h105l-220 -523h-91l-97 243l-97 -243h-91l-221 523h105l169 -417l76 194l-91 222h90l60 -164l59 164h90l-90 -222l76 -194z" />
    <glyph glyph-name="x" unicode="x" horiz-adv-x="522" 
d="M124 523l128 -179l9 -17l9 17l127 179h115l-191 -262l193 -261h-115l-129 178l-9 16l-9 -16l-129 -178h-115l193 261l-191 262h114z" />
    <glyph glyph-name="y" unicode="y" horiz-adv-x="547" 
d="M84 -123q15 -3 29.5 -5t23.5 -2q13 0 22.5 5.5t19.5 19.5t20.5 39.5t24.5 65.5l-215 523h113l162 -426l144 426h104l-237 -644q-16 -45 -55.5 -75.5t-101.5 -30.5q-12 0 -25 1.5t-29 6.5v96z" />
    <glyph glyph-name="z" unicode="z" horiz-adv-x="493" 
d="M28 69l314 376h-303v78h419v-69l-312 -376h315v-78h-433v69z" />
    <glyph glyph-name="braceleft" unicode="{" horiz-adv-x="293" 
d="M190 651v-224q0 -17 -8 -35t-24 -32q15 -14 23.5 -32t8.5 -35v-235h55v-89h-132q-7 0 -15 6.5t-8 23.5v260q0 24 -13 41.5t-33 21.5v78q10 0 18.5 6t14.5 15.5t9.5 20t3.5 19.5v249q0 19 9 24.5t14 5.5h132v-89h-55z" />
    <glyph glyph-name="bar" unicode="|" horiz-adv-x="256" 
d="M81 -130v905h94v-905h-94z" />
    <glyph glyph-name="braceright" unicode="}" horiz-adv-x="293" 
d="M49 651v89h131q5 0 14 -5.5t9 -24.5v-249q0 -9 3 -19.5t9 -20t14.5 -15.5t19.5 -6v-78q-20 -4 -33 -21.5t-13 -41.5v-260q0 -17 -8 -23.5t-15 -6.5h-131v89h55v235q0 17 7.5 35t23.5 32q-16 14 -23.5 32t-7.5 35v224h-55z" />
    <glyph glyph-name="asciitilde" unicode="~" horiz-adv-x="549" 
d="M61 232q0 7 6.5 27t21.5 41t39 37.5t60 16.5q25 0 47 -8.5t42 -19t39.5 -19t41.5 -8.5q20 0 33.5 7.5t21.5 16.5t11 17t3 10h63q0 -4 -6.5 -23t-22 -40t-41 -38t-63.5 -17q-26 0 -48.5 8.5t-42.5 19t-39.5 19t-39.5 8.5t-32 -8.5t-19.5 -18.5t-10 -18.5t-2.5 -9.5h-62z
" />
    <glyph glyph-name="uni00A0" unicode="&#xa0;" horiz-adv-x="247" 
 />
    <glyph glyph-name="exclamdown" unicode="&#xa1;" horiz-adv-x="282" 
d="M196 460v-464h-110v464h110zM196 713v-137h-110v137h110z" />
    <glyph glyph-name="cent" unicode="&#xa2;" horiz-adv-x="580" 
d="M276 -120v111q-52 4 -95 28.5t-74 61.5t-48.5 83t-17.5 94q0 51 16 97t46 83t73.5 61.5t99.5 31.5v114h52v-114q72 -2 126 -35.5t85 -93.5l-106 -34q-18 31 -45.5 47.5t-59.5 18.5v-347q15 2 32 7.5t32.5 14.5t27 21t16.5 26l107 -32q-14 -33 -39.5 -58.5t-56 -42
t-62 -25t-57.5 -8.5v-110h-52zM154 258q0 -29 9 -56.5t25 -49.5t38.5 -38t49.5 -22v338q-29 -5 -51.5 -21t-38.5 -39.5t-24 -52.5t-8 -59z" />
    <glyph glyph-name="sterling" unicode="&#xa3;" horiz-adv-x="528" 
d="M55 378h80l-39 79q-20 39 -20 83q0 36 15.5 68t42.5 56t63 37.5t77 13.5q58 0 110 -28t87 -77l-59 -68q-24 38 -63 60.5t-77 22.5q-42 0 -69 -27t-27 -68q0 -19 6 -37.5t15 -37t19.5 -37.5t19.5 -40h182v-84h-159q1 -6 1.5 -11.5t0.5 -11.5q0 -47 -21 -89.5t-71 -95.5
q20 5 38.5 8t36.5 3q38 0 70.5 -9t67.5 -9q19 0 37.5 4.5t42.5 12.5l27 -82q-25 -14 -54.5 -21.5t-58.5 -7.5q-23 0 -44.5 4t-43.5 9.5t-44 9.5t-46 4q-26 0 -58.5 -5.5t-61.5 -14.5l-26 79q60 53 86.5 100t26.5 95q0 7 -0.5 14t-1.5 14h-108v84z" />
    <glyph glyph-name="currency" unicode="&#xa4;" horiz-adv-x="545" 
d="M165 491q22 15 49 23.5t59 8.5q31 0 57.5 -8.5t49.5 -23.5l70 71l48 -47l-71 -70q33 -47 33 -108q0 -60 -34 -108l72 -70l-43 -42l-73 68q-22 -15 -49.5 -24t-59.5 -9q-33 0 -60.5 9t-50.5 24l-73 -68l-42 42l71 71q-16 23 -24.5 50.5t-8.5 56.5q0 61 32 107l-70 71
l47 47zM171 336q0 -24 8 -44.5t21.5 -35.5t32.5 -23.5t40 -8.5q43 0 72.5 32.5t29.5 81.5t-29.5 80.5t-72.5 31.5t-72.5 -32t-29.5 -82z" />
    <glyph glyph-name="yen" unicode="&#xa5;" horiz-adv-x="699" 
d="M478 389h77v-73h-116l-35 -62v-29h152v-73h-152v-152h-113v152h-150v73h150v31l-33 60h-117v73h79l-191 321h123l196 -356l198 356h123z" />
    <glyph glyph-name="brokenbar" unicode="&#xa6;" horiz-adv-x="258" 
d="M176 269v-399h-94v399h94zM176 775v-399h-94v399h94z" />
    <glyph glyph-name="section" unicode="&#xa7;" horiz-adv-x="524" 
d="M443 208q18 -14 28.5 -39.5t10.5 -63.5q0 -51 -21 -88t-52.5 -60t-69.5 -34t-72 -11q-38 0 -70.5 10t-59 25t-47 32t-33.5 32l71 68q32 -33 65 -47.5t69 -14.5q20 0 39 5.5t34 16t24 26.5t9 36q0 21 -9 34t-23 20t-31 10t-34 4q-94 6 -148.5 50.5t-54.5 121.5q0 29 7 48
t15 30q-17 14 -31 43.5t-14 69.5q0 38 16.5 71.5t45 58t65.5 39t78 14.5q42 0 74 -11t56.5 -27.5t42 -36.5t30.5 -38l-85 -40q-16 28 -46 41.5t-65 13.5q-20 0 -38.5 -6t-32.5 -16.5t-22 -26.5t-8 -35q0 -44 29 -59.5t72 -16.5q37 -1 74.5 -9.5t67.5 -28t49 -50.5t19 -76
q0 -29 -7.5 -51.5t-16.5 -33.5zM175 327q0 -36 18.5 -51.5t45 -22t54.5 -8.5t47 -9q11 8 17 23.5t6 31.5q0 22 -10 36.5t-25 23.5t-33 13t-34 4q-19 0 -37 3t-29 8q-9 -8 -14.5 -22.5t-5.5 -29.5z" />
    <glyph glyph-name="dieresis" unicode="&#xa8;" horiz-adv-x="411" 
d="M71 615v110h92v-110h-92zM248 615v110h92v-110h-92z" />
    <glyph glyph-name="copyright" unicode="&#xa9;" horiz-adv-x="838" 
d="M417 -7q-80 0 -148.5 27.5t-118 76t-77.5 114.5t-28 144q0 77 28 143t77.5 114t118 75.5t148.5 27.5q81 0 150 -27.5t119.5 -75.5t79 -114t28.5 -143q0 -78 -28.5 -144t-79 -114.5t-119.5 -76t-150 -27.5zM417 37q69 0 129.5 23t104.5 65t69.5 100t25.5 128q0 68 -25 126
t-69 101t-104 67t-131 24q-70 0 -129.5 -24t-103 -67t-68 -101t-24.5 -125t24.5 -125t68 -100.5t103 -67t129.5 -24.5zM425 119q-52 0 -97 17.5t-78 49t-51.5 75t-18.5 94.5q0 44 15 86.5t45 76t75.5 54t105.5 20.5q75 0 130 -32.5t81 -89.5l-106 -34q-9 18 -21.5 30
t-26.5 18.5t-29 9.5t-28 3q-31 0 -55 -12t-40.5 -31.5t-25 -45.5t-8.5 -53q0 -34 11.5 -60.5t30.5 -44.5t42.5 -27.5t46.5 -9.5q31 0 62 16.5t45 46.5l107 -32q-10 -23 -29 -45.5t-46 -40t-61.5 -28.5t-75.5 -11z" />
    <glyph glyph-name="ordfeminine" unicode="&#xaa;" horiz-adv-x="441" 
d="M163 342q-26 0 -47.5 8.5t-38 23.5t-25.5 35.5t-9 44.5q0 25 11 46.5t31 36.5t47 23.5t60 8.5q52 0 90 -16v22q0 37 -20.5 57.5t-61.5 20.5q-28 0 -55 -10t-57 -30l-26 53q70 46 146 46q75 0 116.5 -37.5t41.5 -109.5v-118q0 -25 23 -26v-73q-20 -4 -37 -4
q-25 0 -38.5 11t-16.5 31l-1 21q-25 -32 -59.5 -48.5t-73.5 -16.5zM187 404q25 0 47 9t35 24q13 10 13 26v43q-17 8 -36.5 11t-38.5 3q-38 0 -61.5 -16.5t-23.5 -42.5q0 -24 18.5 -40.5t46.5 -16.5z" />
    <glyph glyph-name="guillemotleft" unicode="&#xab;" horiz-adv-x="621" 
d="M38 284l258 185v-91l-170 -119l170 -115v-90l-258 175v55zM303 284l259 185v-91l-171 -119l171 -115v-90l-259 175v55z" />
    <glyph glyph-name="logicalnot" unicode="&#xac;" horiz-adv-x="601" 
d="M533 387v-274h-94v175h-376v99h470z" />
    <glyph glyph-name="uni00AD" unicode="&#xad;" horiz-adv-x="592" 
d="M61 224v99h470v-99h-470z" />
    <glyph glyph-name="registered" unicode="&#xae;" horiz-adv-x="838" 
d="M418 -7q-81 0 -149 27.5t-118 76t-78 114.5t-28 144q0 77 28 143t78 114t118 75.5t149 27.5t149.5 -27.5t119 -75.5t79 -114t28.5 -143q0 -78 -28.5 -144t-79 -114.5t-119 -76t-149.5 -27.5zM418 36q69 0 128.5 23t104 65t69.5 100.5t25 129.5q0 67 -24.5 125
t-68.5 100.5t-104 67t-130 24.5q-71 0 -130 -24.5t-102.5 -67t-67.5 -100t-24 -124.5q0 -68 24 -126t67.5 -101t102.5 -67.5t130 -24.5zM260 577h193q30 0 55.5 -12.5t43.5 -33t28.5 -46.5t10.5 -53q0 -45 -24.5 -81t-64.5 -49l107 -169h-89l-98 155h-83v-155h-79v444z
M448 357q31 0 48 20.5t17 54.5q0 35 -19.5 54.5t-48.5 19.5h-106v-149h109z" />
    <glyph glyph-name="macron" unicode="&#xaf;" horiz-adv-x="411" 
d="M58 644v70h296v-70h-296z" />
    <glyph glyph-name="degree" unicode="&#xb0;" horiz-adv-x="278" 
d="M44 631q0 40 27 66.5t68 26.5q42 0 68.5 -26.5t26.5 -66.5q0 -44 -26.5 -71t-68.5 -27q-41 0 -68 28t-27 70zM111 657q-12 -14 -12 -28q0 -16 12 -28q10 -12 28 -12q8 0 15.5 3t12.5 9q12 12 12 28q0 14 -12 28q-5 6 -12.5 8.5t-15.5 2.5q-17 0 -28 -11z" />
    <glyph glyph-name="plusminus" unicode="&#xb1;" horiz-adv-x="469" 
d="M63 40v89h342v-89h-342zM406 417v-89h-122v-132h-99v132h-122v89h122v131h99v-131h122z" />
    <glyph glyph-name="twosuperior" unicode="&#xb2;" horiz-adv-x="406" 
d="M32 395q0 40 7 70t22.5 52.5t40 39.5t59.5 31l47 18q24 9 43.5 20t31.5 25t12 35q0 28 -23.5 45t-68.5 17q-46 0 -76.5 -17t-47.5 -34l-43 48q6 8 20.5 20t37 22.5t52.5 18t67 7.5q78 0 117.5 -34.5t39.5 -93.5q0 -32 -13.5 -54t-34 -37.5t-44 -25t-43.5 -15.5
q-57 -18 -84 -43t-27 -50h237v-65h-329z" />
    <glyph glyph-name="threesuperior" unicode="&#xb3;" horiz-adv-x="400" 
d="M191 389q-63 0 -106 21.5t-55 60.5l37 48q3 -9 12.5 -20t25 -20.5t37 -16t48.5 -6.5q45 0 76 15.5t31 43.5q0 31 -40 46.5t-109 15.5h-23v61h23q62 0 98.5 14t36.5 44q0 13 -8 23.5t-21 17.5t-30 10.5t-34 3.5q-41 0 -69 -14t-45 -37l-44 52q21 29 65 45t93 16
q35 0 65 -8.5t52 -24t34.5 -36.5t12.5 -45q0 -35 -24 -57.5t-69 -30.5q48 -7 76 -36.5t28 -69.5q0 -29 -14.5 -50.5t-38.5 -36t-55.5 -22t-65.5 -7.5z" />
    <glyph glyph-name="acute" unicode="&#xb4;" horiz-adv-x="243" 
d="M119 598l-72 22l57 110h105z" />
    <glyph glyph-name="mu" unicode="&#xb5;" horiz-adv-x="645" 
d="M77 523h110v-298q0 -141 102 -141q45 0 87.5 29t65.5 84v326h110v-393q0 -35 32 -36v-94q-18 -3 -29.5 -4t-21.5 -1q-32 0 -51.5 17.5t-21.5 45.5l-2 48q-10 -21 -28.5 -42t-41.5 -37.5t-50 -26.5t-55 -10q-43 0 -68 21.5t-34 46.5v-270h-104v735z" />
    <glyph glyph-name="paragraph" unicode="&#xb6;" horiz-adv-x="637" 
d="M35 461q0 118 74 183.5t208 65.5h275v-84h-70v-706h-94v296h-59v-296h-95v296q-54 1 -98.5 18.5t-75.5 49.5t-48 76.5t-17 100.5zM127 463q0 -39 11.5 -68.5t32 -49.5t47 -31.5t56.5 -13.5v326q-71 -2 -109 -46t-38 -117zM428 626h-59v-326h59v326z" />
    <glyph glyph-name="periodcentered" unicode="&#xb7;" horiz-adv-x="213" 
d="M61 243v137h91v-137h-91z" />
    <glyph glyph-name="cedilla" unicode="&#xb8;" horiz-adv-x="310" 
d="M45 -126q12 -7 37 -13.5t51 -6.5t41.5 8t15.5 26q0 20 -14.5 27t-37.5 7q-21 0 -44 -4t-36 -8l60 114l45 -15l-35 -54q8 2 17 3t17 1q35 0 58.5 -16t23.5 -51q0 -36 -29.5 -58.5t-89.5 -22.5q-32 0 -57.5 6t-45.5 14z" />
    <glyph glyph-name="onesuperior" unicode="&#xb9;" horiz-adv-x="289" 
d="M268 461v-66h-219v66h79v279q-5 -7 -16 -15.5t-24.5 -16t-28 -13t-26.5 -5.5v67q16 0 32.5 8.5t30.5 18.5t23 19t9 10h67v-352h73z" />
    <glyph glyph-name="ordmasculine" unicode="&#xba;" horiz-adv-x="446" 
d="M223 342q-42 0 -76 15t-58 40.5t-37 58.5t-13 70q0 38 13 71.5t37 59t58 40.5t76 15t76 -15t58 -40.5t37 -59t13 -71.5q0 -37 -13 -70t-37 -58.5t-58 -40.5t-76 -15zM124 526q0 -24 7.5 -44.5t21 -35.5t31.5 -23.5t39 -8.5t39 8.5t31.5 23.5t21 36t7.5 45t-7.5 44.5
t-21 35.5t-31.5 23.5t-39 8.5t-39 -8.5t-31.5 -23.5t-21 -36t-7.5 -45z" />
    <glyph glyph-name="guillemotright" unicode="&#xbb;" horiz-adv-x="621" 
d="M583 229l-258 -175v90l171 115l-171 119v91l258 -185v-55zM318 229l-258 -175v90l170 115l-170 119v91l258 -185v-55z" />
    <glyph glyph-name="onequarter" unicode="&#xbc;" horiz-adv-x="893" 
d="M732 0v97h-224v64l244 253h46v-252h60v-65h-60v-97h-66zM575 162h159v167zM161 40l281 333l264 343l52 -45l-276 -329l-270 -348zM278 379v-66h-219v66h79v279q-5 -7 -16 -15.5t-24.5 -16t-28 -13t-26.5 -5.5v66q16 0 32.5 8.5t30.5 19t23 19.5t9 10h67v-352h73z" />
    <glyph glyph-name="onehalf" unicode="&#xbd;" horiz-adv-x="922" 
d="M552 0q0 40 7 70t22 52.5t39 39.5t58 31q22 9 45.5 17.5t42 19.5t30.5 25.5t12 35.5q0 29 -22.5 45.5t-67.5 16.5t-74.5 -17.5t-45.5 -34.5l-42 49q6 8 20.5 20t36 22.5t50.5 18t65 7.5q75 0 114 -34.5t39 -93.5q0 -32 -13 -54t-33 -37t-43 -24t-42 -15q-55 -18 -74 -44
t-19 -51h225v-65h-330zM123 40l281 333l264 343l52 -45l-276 -329l-270 -348zM277 379v-66h-219v66h79v279q-5 -7 -16 -15.5t-24.5 -16t-28 -13t-26.5 -5.5v66q16 0 32.5 8.5t30.5 19t23 19.5t9 10h67v-352h73z" />
    <glyph glyph-name="threequarters" unicode="&#xbe;" horiz-adv-x="901" 
d="M200 306q-63 0 -106 22t-55 61l37 48q3 -10 13 -21t26 -20.5t37 -15.5t47 -6q45 0 76 15.5t31 43.5q0 31 -40 46.5t-109 15.5h-23v61h23q62 0 98.5 14t36.5 43q0 14 -8 24.5t-21 17.5t-30 10.5t-34 3.5q-41 0 -69 -14.5t-45 -37.5l-44 53q21 29 65 45t93 16q35 0 65 -8.5
t52 -24t34.5 -36.5t12.5 -45q0 -35 -24 -57.5t-69 -30.5q48 -7 76 -36.5t28 -69.5q0 -29 -14.5 -51t-38.5 -36.5t-55.5 -22t-65.5 -7.5zM739 0v97h-224v64l244 253h46v-252h60v-65h-60v-97h-66zM582 162h159v167zM192 40l281 333l264 343l52 -45l-276 -329l-270 -348z" />
    <glyph glyph-name="questiondown" unicode="&#xbf;" horiz-adv-x="476" 
d="M345 285q0 -52 -17.5 -92t-65.5 -69l-40 -23q-23 -12 -44 -29t-35.5 -40t-14.5 -54q0 -24 9.5 -43t24.5 -32t35 -19.5t41 -6.5q24 0 44 7.5t37 20t30.5 28t22.5 32.5l72 -49q-27 -62 -84 -95.5t-125 -33.5q-38 0 -74 11.5t-65 35t-46.5 60.5t-17.5 88q0 34 9 60
t24.5 46.5t37 35.5t45.5 29l39 23q19 11 33.5 26t23.5 35t9 48h92zM345 506v-126h-92v126h92z" />
    <glyph glyph-name="Agrave" unicode="&#xc0;" horiz-adv-x="675" 
d="M289 710h98l280 -710h-118l-75 193h-274l-74 -193h-119zM452 276l-114 305l-118 -305h232zM222 917h105l57 -110l-70 -22z" />
    <glyph glyph-name="Aacute" unicode="&#xc1;" horiz-adv-x="675" 
d="M289 710h98l280 -710h-118l-75 193h-274l-74 -193h-119zM452 276l-114 305l-118 -305h232zM362 784l-72 22l57 110h105z" />
    <glyph glyph-name="Acircumflex" unicode="&#xc2;" horiz-adv-x="675" 
d="M289 710h98l280 -710h-118l-75 193h-274l-74 -193h-119zM452 276l-114 305l-118 -305h232zM194 821l104 95h79l104 -95l-59 -28l-85 63l-85 -63z" />
    <glyph glyph-name="Atilde" unicode="&#xc3;" horiz-adv-x="675" 
d="M289 710h98l280 -710h-118l-75 193h-274l-74 -193h-119zM452 276l-114 305l-118 -305h232zM401 801q-23 0 -40 6.5t-31.5 15t-28.5 15t-30 6.5q-17 0 -26.5 -7t-14.5 -15.5t-6.5 -16.5t-1.5 -9h-62q0 8 5 27t17.5 38.5t33 34.5t51.5 15q22 0 38.5 -7t31 -15t29 -15
t32.5 -7t29 7t16.5 16t7 16.5t1.5 9.5h63q0 -6 -5.5 -25t-18.5 -39t-35 -35.5t-55 -15.5z" />
    <glyph glyph-name="Adieresis" unicode="&#xc4;" horiz-adv-x="675" 
d="M289 710h98l280 -710h-118l-75 193h-274l-74 -193h-119zM452 276l-114 305l-118 -305h232zM204 802v110h92v-110h-92zM381 802v110h92v-110h-92z" />
    <glyph glyph-name="Aring" unicode="&#xc5;" horiz-adv-x="675" 
d="M289 710h98l280 -710h-118l-75 193h-274l-74 -193h-119zM452 276l-114 305l-118 -305h232zM249 843q0 35 24.5 54t63.5 19q40 0 64.5 -19t24.5 -54q0 -34 -24.5 -53.5t-64.5 -19.5q-39 0 -63.5 19.5t-24.5 53.5zM337 880q-17 0 -28.5 -10t-11.5 -27q0 -15 11.5 -26
t28.5 -11t29 10.5t12 26.5q0 17 -12 27t-29 10z" />
    <glyph glyph-name="AE" unicode="&#xc6;" horiz-adv-x="963" 
d="M423 710h496v-99h-354v-200h300v-99h-300v-213h363v-99h-475v193h-239l-118 -193h-121zM445 293v288l-182 -288h182z" />
    <glyph glyph-name="Ccedilla" unicode="&#xc7;" horiz-adv-x="682" 
d="M289 -126q12 -7 37 -13.5t51 -6.5t41.5 8t15.5 26q0 20 -14.5 27t-37.5 7q-21 0 -44 -4t-36 -8l45 85q-70 5 -127.5 38.5t-99 84.5t-64.5 114t-23 128q0 64 23 127.5t67.5 114t108.5 81.5t145 31q97 0 166 -43t104 -112l-88 -59q-15 32 -36 54t-46 35t-52 18.5t-52 5.5
q-56 0 -98 -22.5t-70.5 -59.5t-43 -83t-14.5 -92q0 -52 17 -99t47.5 -83t72.5 -57.5t92 -21.5q26 0 53.5 6.5t53 21t47 36.5t35.5 53l93 -53q-15 -37 -43 -66t-63 -50t-75 -33t-79 -15l-26 -40q8 2 17 3t17 1q35 0 58.5 -16t23.5 -51q0 -36 -29.5 -58.5t-89.5 -22.5
q-32 0 -57.5 6t-45.5 14z" />
    <glyph glyph-name="Egrave" unicode="&#xc8;" horiz-adv-x="603" 
d="M567 99v-99h-487v710h478v-99h-366v-202h317v-93h-317v-217h375zM214 917h105l57 -110l-70 -22z" />
    <glyph glyph-name="Eacute" unicode="&#xc9;" horiz-adv-x="603" 
d="M355 784l-72 22l57 110h105zM567 99v-99h-487v710h478v-99h-366v-202h317v-93h-317v-217h375z" />
    <glyph glyph-name="Ecircumflex" unicode="&#xca;" horiz-adv-x="603" 
d="M187 821l104 95h79l104 -95l-59 -28l-85 63l-85 -63zM567 99v-99h-487v710h478v-99h-366v-202h317v-93h-317v-217h375z" />
    <glyph glyph-name="Edieresis" unicode="&#xcb;" horiz-adv-x="603" 
d="M196 802v110h92v-110h-92zM373 802v110h92v-110h-92zM567 99v-99h-487v710h478v-99h-366v-202h317v-93h-317v-217h375z" />
    <glyph glyph-name="Igrave" unicode="&#xcc;" horiz-adv-x="272" 
d="M80 0v710h112v-710h-112zM20 917h105l57 -110l-70 -22z" />
    <glyph glyph-name="Iacute" unicode="&#xcd;" horiz-adv-x="272" 
d="M80 0v710h112v-710h-112zM161 784l-72 22l57 110h105z" />
    <glyph glyph-name="Icircumflex" unicode="&#xce;" horiz-adv-x="272" 
d="M80 0v710h112v-710h-112zM-7 821l104 95h79l104 -95l-59 -28l-85 63l-85 -63z" />
    <glyph glyph-name="Idieresis" unicode="&#xcf;" horiz-adv-x="272" 
d="M80 0v710h112v-710h-112zM2 802v110h92v-110h-92zM179 802v110h92v-110h-92z" />
    <glyph glyph-name="Eth" unicode="&#xd0;" horiz-adv-x="722" 
d="M86 0v315h-53v84h53v311h252q86 0 150.5 -28t108 -76t65.5 -112.5t22 -137.5q0 -81 -24.5 -146.5t-69.5 -112t-109 -72t-143 -25.5h-252zM570 356q0 56 -15.5 103t-45.5 80.5t-73 52.5t-98 19h-140v-212h151v-84h-151v-216h140q56 0 99.5 19.5t73 54t44.5 81.5t15 102z
" />
    <glyph glyph-name="Ntilde" unicode="&#xd1;" horiz-adv-x="767" 
d="M192 500v-500h-112v710h88l406 -512v511h113v-709h-93zM447 800q-23 0 -40 6.5t-31.5 15t-28.5 15t-30 6.5q-17 0 -26.5 -7t-14.5 -15.5t-6.5 -16.5t-1.5 -9h-62q0 8 5 27t17.5 38.5t33 34.5t51.5 15q22 0 38.5 -7t31 -15t29 -15t32.5 -7t29 7t16.5 16t7 16.5t1.5 9.5h63
q0 -6 -5.5 -25t-18.5 -39t-35 -35.5t-55 -15.5z" />
    <glyph glyph-name="Ograve" unicode="&#xd2;" 
d="M375 -5q-76 0 -138.5 30.5t-107.5 81t-69.5 115.5t-24.5 133q0 71 26 136t71.5 115t108 79.5t136.5 29.5q76 0 138.5 -31.5t107 -82.5t69 -115.5t24.5 -131.5q0 -71 -25.5 -136t-71.5 -114.5t-108.5 -79t-135.5 -29.5zM149 355q0 -50 16 -97t45.5 -83t71.5 -57.5
t94 -21.5q54 0 95.5 22.5t70.5 59.5t44 83t15 94q0 51 -16 97.5t-45.5 82t-71 57t-92.5 21.5q-54 0 -96 -22.5t-71 -58.5t-44.5 -82.5t-15.5 -94.5zM262 917h105l57 -110l-70 -22z" />
    <glyph glyph-name="Oacute" unicode="&#xd3;" 
d="M403 784l-72 22l57 110h105zM375 -5q-76 0 -138.5 30.5t-107.5 81t-69.5 115.5t-24.5 133q0 71 26 136t71.5 115t108 79.5t136.5 29.5q76 0 138.5 -31.5t107 -82.5t69 -115.5t24.5 -131.5q0 -71 -25.5 -136t-71.5 -114.5t-108.5 -79t-135.5 -29.5zM149 355q0 -50 16 -97
t45.5 -83t71.5 -57.5t94 -21.5q54 0 95.5 22.5t70.5 59.5t44 83t15 94q0 51 -16 97.5t-45.5 82t-71 57t-92.5 21.5q-54 0 -96 -22.5t-71 -58.5t-44.5 -82.5t-15.5 -94.5z" />
    <glyph glyph-name="Ocircumflex" unicode="&#xd4;" 
d="M233 821l104 95h79l104 -95l-59 -28l-85 63l-85 -63zM375 -5q-76 0 -138.5 30.5t-107.5 81t-69.5 115.5t-24.5 133q0 71 26 136t71.5 115t108 79.5t136.5 29.5q76 0 138.5 -31.5t107 -82.5t69 -115.5t24.5 -131.5q0 -71 -25.5 -136t-71.5 -114.5t-108.5 -79t-135.5 -29.5
zM149 355q0 -50 16 -97t45.5 -83t71.5 -57.5t94 -21.5q54 0 95.5 22.5t70.5 59.5t44 83t15 94q0 51 -16 97.5t-45.5 82t-71 57t-92.5 21.5q-54 0 -96 -22.5t-71 -58.5t-44.5 -82.5t-15.5 -94.5z" />
    <glyph glyph-name="Otilde" unicode="&#xd5;" 
d="M375 -5q-76 0 -138.5 30.5t-107.5 81t-69.5 115.5t-24.5 133q0 71 26 136t71.5 115t108 79.5t136.5 29.5q76 0 138.5 -31.5t107 -82.5t69 -115.5t24.5 -131.5q0 -71 -25.5 -136t-71.5 -114.5t-108.5 -79t-135.5 -29.5zM149 355q0 -50 16 -97t45.5 -83t71.5 -57.5
t94 -21.5q54 0 95.5 22.5t70.5 59.5t44 83t15 94q0 51 -16 97.5t-45.5 82t-71 57t-92.5 21.5q-54 0 -96 -22.5t-71 -58.5t-44.5 -82.5t-15.5 -94.5zM441 801q-23 0 -40 6.5t-31.5 15t-28.5 15t-30 6.5q-17 0 -26.5 -7t-14.5 -15.5t-6.5 -16.5t-1.5 -9h-62q0 8 5 27
t17.5 38.5t33 34.5t51.5 15q22 0 38.5 -7t31 -15t29 -15t32.5 -7t29 7t16.5 16t7 16.5t1.5 9.5h63q0 -6 -5.5 -25t-18.5 -39t-35 -35.5t-55 -15.5z" />
    <glyph glyph-name="Odieresis" unicode="&#xd6;" 
d="M243 802v110h92v-110h-92zM420 802v110h92v-110h-92zM375 -5q-76 0 -138.5 30.5t-107.5 81t-69.5 115.5t-24.5 133q0 71 26 136t71.5 115t108 79.5t136.5 29.5q76 0 138.5 -31.5t107 -82.5t69 -115.5t24.5 -131.5q0 -71 -25.5 -136t-71.5 -114.5t-108.5 -79t-135.5 -29.5
zM149 355q0 -50 16 -97t45.5 -83t71.5 -57.5t94 -21.5q54 0 95.5 22.5t70.5 59.5t44 83t15 94q0 51 -16 97.5t-45.5 82t-71 57t-92.5 21.5q-54 0 -96 -22.5t-71 -58.5t-44.5 -82.5t-15.5 -94.5z" />
    <glyph glyph-name="multiply" unicode="&#xd7;" horiz-adv-x="470" 
d="M414 164l-69 -68l-110 109l-110 -109l-68 69l108 109l-105 107l69 68l106 -106l107 107l68 -69l-106 -107z" />
    <glyph glyph-name="Oslash" unicode="&#xd8;" horiz-adv-x="751" 
d="M680 710l-67 -98q49 -52 76 -120t27 -138q0 -71 -25.5 -136t-71.5 -114.5t-108.5 -79t-135.5 -29.5q-45 0 -84 10.5t-74 29.5l-24 -35h-122l66 97q-49 51 -75.5 118.5t-26.5 139.5q0 71 26 136t71.5 115t108 79.5t136.5 29.5q44 0 83 -10.5t73 -30.5l25 36h122zM149 355
q0 -46 13 -89t38 -78l274 400q-45 25 -98 25q-54 0 -96 -22.5t-71 -58.5t-44.5 -82.5t-15.5 -94.5zM601 355q0 46 -13 88.5t-38 77.5l-274 -401q22 -11 47 -17.5t53 -6.5q54 0 95.5 22.5t70.5 59.5t44 83t15 94z" />
    <glyph glyph-name="Ugrave" unicode="&#xd9;" 
d="M376 96q56 0 93 22t59.5 57.5t32 81t9.5 93.5v360h113v-360q0 -73 -17 -137.5t-54 -113t-95.5 -76.5t-140.5 -28q-85 0 -143.5 29.5t-94.5 79t-52 113.5t-16 133v360h112v-360q0 -49 9.5 -94.5t32 -81t60 -57t92.5 -21.5zM261 917h105l57 -110l-70 -22z" />
    <glyph glyph-name="Uacute" unicode="&#xda;" 
d="M401 784l-72 22l57 110h105zM376 96q56 0 93 22t59.5 57.5t32 81t9.5 93.5v360h113v-360q0 -73 -17 -137.5t-54 -113t-95.5 -76.5t-140.5 -28q-85 0 -143.5 29.5t-94.5 79t-52 113.5t-16 133v360h112v-360q0 -49 9.5 -94.5t32 -81t60 -57t92.5 -21.5z" />
    <glyph glyph-name="Ucircumflex" unicode="&#xdb;" 
d="M233 821l104 95h79l104 -95l-59 -28l-85 63l-85 -63zM376 96q56 0 93 22t59.5 57.5t32 81t9.5 93.5v360h113v-360q0 -73 -17 -137.5t-54 -113t-95.5 -76.5t-140.5 -28q-85 0 -143.5 29.5t-94.5 79t-52 113.5t-16 133v360h112v-360q0 -49 9.5 -94.5t32 -81t60 -57
t92.5 -21.5z" />
    <glyph glyph-name="Udieresis" unicode="&#xdc;" 
d="M242 802v110h92v-110h-92zM419 802v110h92v-110h-92zM376 96q56 0 93 22t59.5 57.5t32 81t9.5 93.5v360h113v-360q0 -73 -17 -137.5t-54 -113t-95.5 -76.5t-140.5 -28q-85 0 -143.5 29.5t-94.5 79t-52 113.5t-16 133v360h112v-360q0 -49 9.5 -94.5t32 -81t60 -57
t92.5 -21.5z" />
    <glyph glyph-name="Yacute" unicode="&#xdd;" horiz-adv-x="657" 
d="M132 710l196 -356l198 356h123l-265 -456v-254h-112v256l-263 454h123zM353 784l-72 22l57 110h105z" />
    <glyph glyph-name="Thorn" unicode="&#xde;" horiz-adv-x="604" 
d="M361 577q48 0 88.5 -20t69.5 -52.5t45.5 -74t16.5 -84.5q0 -45 -15.5 -87t-43.5 -74t-68 -51.5t-88 -19.5h-174v-114h-112v710h112v-133h169zM361 214q24 0 43.5 11t34 29t22 42t7.5 50q0 28 -9 52t-24.5 42t-36 28t-43.5 10h-163v-264h169z" />
    <glyph glyph-name="germandbls" unicode="&#xdf;" horiz-adv-x="555" 
d="M244 95q36 1 66.5 8.5t52 22.5t34 38.5t12.5 55.5q0 29 -10 52.5t-28 39.5t-42.5 24.5t-52.5 8.5h-20v100h19q42 0 67.5 24.5t25.5 64.5q0 23 -8.5 39.5t-22 27t-30 15t-33.5 4.5q-28 0 -47.5 -10.5t-32 -27t-18 -38t-5.5 -43.5v-501h-105v520q0 42 16 78t44.5 61.5
t68 40t85.5 14.5q41 0 76.5 -11.5t61 -33t40 -51.5t14.5 -67q0 -26 -7.5 -50.5t-20 -44.5t-29.5 -34t-36 -20q68 -17 106.5 -69t38.5 -124q0 -54 -22 -94t-60 -66.5t-89 -40t-109 -14.5v101z" />
    <glyph glyph-name="agrave" unicode="&#xe0;" horiz-adv-x="564" 
d="M205 -10q-38 0 -70.5 12.5t-56 34.5t-37 52t-13.5 65q0 37 16 67t45.5 52t70 34t89.5 12q37 0 73 -6.5t65 -17.5v36q0 58 -33 90.5t-95 32.5q-42 0 -82.5 -15.5t-83.5 -44.5l-34 70q101 68 210 68q108 0 168 -55t60 -158v-189q0 -35 29 -36v-94q-16 -3 -27.5 -4t-22.5 -1
q-32 0 -49.5 16t-21.5 41l-3 33q-35 -46 -86.5 -70.5t-110.5 -24.5zM235 71q40 0 75.5 14.5t55.5 40.5q21 18 21 38v69q-28 11 -59.5 17t-61.5 6q-59 0 -96.5 -25.5t-37.5 -67.5q0 -39 29 -65.5t74 -26.5zM153 730h105l57 -110l-70 -22z" />
    <glyph glyph-name="aacute" unicode="&#xe1;" horiz-adv-x="564" 
d="M205 -10q-38 0 -70.5 12.5t-56 34.5t-37 52t-13.5 65q0 37 16 67t45.5 52t70 34t89.5 12q37 0 73 -6.5t65 -17.5v36q0 58 -33 90.5t-95 32.5q-42 0 -82.5 -15.5t-83.5 -44.5l-34 70q101 68 210 68q108 0 168 -55t60 -158v-189q0 -35 29 -36v-94q-16 -3 -27.5 -4t-22.5 -1
q-32 0 -49.5 16t-21.5 41l-3 33q-35 -46 -86.5 -70.5t-110.5 -24.5zM235 71q40 0 75.5 14.5t55.5 40.5q21 18 21 38v69q-28 11 -59.5 17t-61.5 6q-59 0 -96.5 -25.5t-37.5 -67.5q0 -39 29 -65.5t74 -26.5zM294 598l-72 22l57 110h105z" />
    <glyph glyph-name="acircumflex" unicode="&#xe2;" horiz-adv-x="564" 
d="M205 -10q-38 0 -70.5 12.5t-56 34.5t-37 52t-13.5 65q0 37 16 67t45.5 52t70 34t89.5 12q37 0 73 -6.5t65 -17.5v36q0 58 -33 90.5t-95 32.5q-42 0 -82.5 -15.5t-83.5 -44.5l-34 70q101 68 210 68q108 0 168 -55t60 -158v-189q0 -35 29 -36v-94q-16 -3 -27.5 -4t-22.5 -1
q-32 0 -49.5 16t-21.5 41l-3 33q-35 -46 -86.5 -70.5t-110.5 -24.5zM235 71q40 0 75.5 14.5t55.5 40.5q21 18 21 38v69q-28 11 -59.5 17t-61.5 6q-59 0 -96.5 -25.5t-37.5 -67.5q0 -39 29 -65.5t74 -26.5zM126 635l104 95h79l104 -95l-59 -28l-85 63l-85 -63z" />
    <glyph glyph-name="atilde" unicode="&#xe3;" horiz-adv-x="564" 
d="M205 -10q-38 0 -70.5 12.5t-56 34.5t-37 52t-13.5 65q0 37 16 67t45.5 52t70 34t89.5 12q37 0 73 -6.5t65 -17.5v36q0 58 -33 90.5t-95 32.5q-42 0 -82.5 -15.5t-83.5 -44.5l-34 70q101 68 210 68q108 0 168 -55t60 -158v-189q0 -35 29 -36v-94q-16 -3 -27.5 -4t-22.5 -1
q-32 0 -49.5 16t-21.5 41l-3 33q-35 -46 -86.5 -70.5t-110.5 -24.5zM235 71q40 0 75.5 14.5t55.5 40.5q21 18 21 38v69q-28 11 -59.5 17t-61.5 6q-59 0 -96.5 -25.5t-37.5 -67.5q0 -39 29 -65.5t74 -26.5zM332 615q-23 0 -40 6.5t-31.5 15t-28.5 15t-30 6.5q-17 0 -26.5 -7
t-14.5 -15.5t-6.5 -16.5t-1.5 -9h-62q0 8 5 27t17.5 38.5t33 34.5t51.5 15q22 0 38.5 -7t31 -15t29 -15t32.5 -7t29 7t16.5 16t7 16.5t1.5 9.5h63q0 -6 -5.5 -25t-18.5 -39t-35 -35.5t-55 -15.5z" />
    <glyph glyph-name="adieresis" unicode="&#xe4;" horiz-adv-x="564" 
d="M205 -10q-38 0 -70.5 12.5t-56 34.5t-37 52t-13.5 65q0 37 16 67t45.5 52t70 34t89.5 12q37 0 73 -6.5t65 -17.5v36q0 58 -33 90.5t-95 32.5q-42 0 -82.5 -15.5t-83.5 -44.5l-34 70q101 68 210 68q108 0 168 -55t60 -158v-189q0 -35 29 -36v-94q-16 -3 -27.5 -4t-22.5 -1
q-32 0 -49.5 16t-21.5 41l-3 33q-35 -46 -86.5 -70.5t-110.5 -24.5zM235 71q40 0 75.5 14.5t55.5 40.5q21 18 21 38v69q-28 11 -59.5 17t-61.5 6q-59 0 -96.5 -25.5t-37.5 -67.5q0 -39 29 -65.5t74 -26.5zM135 615v110h92v-110h-92zM312 615v110h92v-110h-92z" />
    <glyph glyph-name="aring" unicode="&#xe5;" horiz-adv-x="564" 
d="M205 -10q-38 0 -70.5 12.5t-56 34.5t-37 52t-13.5 65q0 37 16 67t45.5 52t70 34t89.5 12q37 0 73 -6.5t65 -17.5v36q0 58 -33 90.5t-95 32.5q-42 0 -82.5 -15.5t-83.5 -44.5l-34 70q101 68 210 68q108 0 168 -55t60 -158v-189q0 -35 29 -36v-94q-16 -3 -27.5 -4t-22.5 -1
q-32 0 -49.5 16t-21.5 41l-3 33q-35 -46 -86.5 -70.5t-110.5 -24.5zM235 71q40 0 75.5 14.5t55.5 40.5q21 18 21 38v69q-28 11 -59.5 17t-61.5 6q-59 0 -96.5 -25.5t-37.5 -67.5q0 -39 29 -65.5t74 -26.5zM180 657q0 35 24.5 54t63.5 19q40 0 64.5 -19t24.5 -54
q0 -34 -24.5 -53.5t-64.5 -19.5q-39 0 -63.5 19.5t-24.5 53.5zM268 694q-17 0 -28.5 -10t-11.5 -27q0 -15 11.5 -26t28.5 -11t29 10.5t12 26.5q0 17 -12 27t-29 10z" />
    <glyph glyph-name="ae" unicode="&#xe6;" horiz-adv-x="935" 
d="M204 -10q-38 0 -70 12.5t-55.5 34.5t-37 52t-13.5 65q0 37 16 67t45 52t69.5 34t89.5 12q33 0 65.5 -5t58.5 -15q2 13 4 29t7 27q-6 48 -37.5 73.5t-87.5 25.5q-41 0 -81.5 -15.5t-83.5 -44.5l-35 70q103 68 210 68q63 0 109.5 -22t72.5 -63q33 38 82 61.5t109 23.5
q61 0 111 -21.5t85 -58.5t54.5 -86.5t19.5 -104.5q0 -8 -0.5 -18.5t-2.5 -17.5h-427q3 -35 17 -63t36.5 -48.5t51.5 -31.5t61 -11q22 0 43.5 5.5t39.5 16t32 25.5t22 33l94 -27q-13 -29 -36 -53.5t-53.5 -42.5t-67.5 -28t-78 -10q-72 0 -129 30t-92 81q-17 -30 -43 -51
t-55.5 -34.5t-60.5 -19.5t-59 -6zM234 71q41 0 76.5 14.5t55.5 40.5q19 16 21 35q-7 13 -10.5 37.5t-4.5 39.5q-25 8 -52.5 13t-53.5 5q-60 0 -97.5 -25.5t-37.5 -67.5q0 -20 8 -36.5t22 -29t32.5 -19.5t40.5 -7zM801 295q-3 34 -16.5 63t-34.5 49.5t-49.5 32t-61.5 11.5
t-61.5 -11.5t-49.5 -32.5t-34 -49.5t-15 -62.5h322z" />
    <glyph glyph-name="ccedilla" unicode="&#xe7;" horiz-adv-x="559" 
d="M225 -126q12 -7 37 -13.5t51 -6.5t41.5 8t15.5 26q0 20 -14.5 27t-37.5 7q-21 0 -44 -4t-36 -8l42 81q-56 4 -102 27.5t-78.5 60t-50 84t-17.5 99.5q0 55 19 104t54.5 86t85.5 58.5t112 21.5q81 0 139.5 -35.5t87.5 -94.5l-107 -34q-19 33 -51 51.5t-71 18.5
q-33 0 -61.5 -13t-49.5 -36.5t-33 -55.5t-12 -71q0 -38 12.5 -70.5t34 -56.5t50 -37.5t60.5 -13.5q20 0 40 5.5t36.5 15.5t29 23t18.5 28l108 -32q-23 -54 -76.5 -90t-126.5 -43l-23 -36q8 2 17 3t17 1q35 0 58.5 -16t23.5 -51q0 -36 -29.5 -58.5t-89.5 -22.5q-32 0 -57.5 6
t-45.5 14z" />
    <glyph glyph-name="egrave" unicode="&#xe8;" horiz-adv-x="595" 
d="M303 -10q-61 0 -111 21.5t-85.5 58.5t-55 86t-19.5 104t19.5 104.5t55 87t85.5 59t112 21.5q61 0 110.5 -22t84.5 -58.5t53.5 -85t18.5 -101.5q0 -12 -1 -22.5t-2 -17.5h-419q3 -35 16.5 -63t35 -48.5t49 -31.5t57.5 -11q22 0 43.5 5.5t39.5 16t32 25.5t22 33l94 -27
q-27 -59 -89.5 -96.5t-145.5 -37.5zM462 301q-3 33 -16.5 61t-34.5 47.5t-49 30.5t-59 11t-58.5 -11t-48.5 -30.5t-34 -47.5t-16 -61h316zM185 730h105l57 -110l-70 -22z" />
    <glyph glyph-name="eacute" unicode="&#xe9;" horiz-adv-x="595" 
d="M325 598l-72 22l57 110h105zM303 -10q-61 0 -111 21.5t-85.5 58.5t-55 86t-19.5 104t19.5 104.5t55 87t85.5 59t112 21.5q61 0 110.5 -22t84.5 -58.5t53.5 -85t18.5 -101.5q0 -12 -1 -22.5t-2 -17.5h-419q3 -35 16.5 -63t35 -48.5t49 -31.5t57.5 -11q22 0 43.5 5.5
t39.5 16t32 25.5t22 33l94 -27q-27 -59 -89.5 -96.5t-145.5 -37.5zM462 301q-3 33 -16.5 61t-34.5 47.5t-49 30.5t-59 11t-58.5 -11t-48.5 -30.5t-34 -47.5t-16 -61h316z" />
    <glyph glyph-name="ecircumflex" unicode="&#xea;" horiz-adv-x="595" 
d="M157 635l104 95h79l104 -95l-59 -28l-85 63l-85 -63zM303 -10q-61 0 -111 21.5t-85.5 58.5t-55 86t-19.5 104t19.5 104.5t55 87t85.5 59t112 21.5q61 0 110.5 -22t84.5 -58.5t53.5 -85t18.5 -101.5q0 -12 -1 -22.5t-2 -17.5h-419q3 -35 16.5 -63t35 -48.5t49 -31.5
t57.5 -11q22 0 43.5 5.5t39.5 16t32 25.5t22 33l94 -27q-27 -59 -89.5 -96.5t-145.5 -37.5zM462 301q-3 33 -16.5 61t-34.5 47.5t-49 30.5t-59 11t-58.5 -11t-48.5 -30.5t-34 -47.5t-16 -61h316z" />
    <glyph glyph-name="edieresis" unicode="&#xeb;" horiz-adv-x="595" 
d="M166 615v110h92v-110h-92zM343 615v110h92v-110h-92zM303 -10q-61 0 -111 21.5t-85.5 58.5t-55 86t-19.5 104t19.5 104.5t55 87t85.5 59t112 21.5q61 0 110.5 -22t84.5 -58.5t53.5 -85t18.5 -101.5q0 -12 -1 -22.5t-2 -17.5h-419q3 -35 16.5 -63t35 -48.5t49 -31.5
t57.5 -11q22 0 43.5 5.5t39.5 16t32 25.5t22 33l94 -27q-27 -59 -89.5 -96.5t-145.5 -37.5zM462 301q-3 33 -16.5 61t-34.5 47.5t-49 30.5t-59 11t-58.5 -11t-48.5 -30.5t-34 -47.5t-16 -61h316z" />
    <glyph glyph-name="igrave" unicode="&#xec;" horiz-adv-x="242" 
d="M66 0v523h110v-523h-110zM5 730h105l57 -110l-70 -22z" />
    <glyph glyph-name="iacute" unicode="&#xed;" horiz-adv-x="242" 
d="M146 598l-72 22l57 110h105zM66 0v523h110v-523h-110z" />
    <glyph glyph-name="icircumflex" unicode="&#xee;" horiz-adv-x="242" 
d="M-22 635l104 95h79l104 -95l-59 -28l-85 63l-85 -63zM66 0v523h110v-523h-110z" />
    <glyph glyph-name="idieresis" unicode="&#xef;" horiz-adv-x="242" 
d="M-13 615v110h92v-110h-92zM164 615v110h92v-110h-92zM66 0v523h110v-523h-110z" />
    <glyph glyph-name="eth" unicode="&#xf0;" horiz-adv-x="609" 
d="M515 668l-74 -42q35 -39 60 -81.5t41 -86t23.5 -86.5t7.5 -82q0 -70 -21.5 -125.5t-58 -94.5t-86.5 -59.5t-107 -20.5q-55 0 -103.5 18.5t-84.5 51.5t-56.5 77.5t-20.5 95.5q0 49 19 93t52 76.5t77 51.5t95 19q58 0 106.5 -25.5t75.5 -67.5q-11 54 -34.5 105t-68.5 100
l-101 -58l-32 45l92 53q-60 53 -154 105h147q51 -28 92 -65l82 48zM148 233q0 -32 12 -59t33 -47t49 -31.5t60 -11.5q34 0 63 12t50 33t33 49t12 60q0 31 -12 58t-33 46.5t-49 30.5t-61 11t-62 -12t-50 -32t-33 -48t-12 -59z" />
    <glyph glyph-name="ntilde" unicode="&#xf1;" horiz-adv-x="597" 
d="M535 0h-110v293q0 74 -23.5 107.5t-69.5 33.5q-24 0 -48 -9t-45 -25.5t-37.5 -39t-25.5 -49.5v-311h-110v523h100v-105q30 53 87 83.5t126 30.5q47 0 77 -17t47.5 -46.5t24.5 -68t7 -81.5v-319zM372 615q-23 0 -40 6.5t-31.5 15t-28.5 15t-30 6.5q-17 0 -26.5 -7
t-14.5 -15.5t-6.5 -16.5t-1.5 -9h-62q0 8 5 27t17.5 38.5t33 34.5t51.5 15q22 0 38.5 -7t31 -15t29 -15t32.5 -7t29 7t16.5 16t7 16.5t1.5 9.5h63q0 -6 -5.5 -25t-18.5 -39t-35 -35.5t-55 -15.5z" />
    <glyph glyph-name="ograve" unicode="&#xf2;" horiz-adv-x="602" 
d="M301 -10q-62 0 -111.5 22t-84.5 59t-54 86.5t-19 103.5t19 103.5t54.5 86.5t85 59t110.5 22t110.5 -22t85 -59t54.5 -86.5t19 -103.5t-19 -103.5t-54.5 -86.5t-85 -59t-110.5 -22zM145 260q0 -38 12 -70t33 -55.5t49.5 -37t61.5 -13.5t61.5 13.5t49.5 37.5t33 56t12 70
q0 37 -12 69.5t-33 56.5t-49.5 37.5t-61.5 13.5q-32 0 -60.5 -14t-49.5 -38t-33.5 -56.5t-12.5 -69.5zM186 730h105l57 -110l-70 -22z" />
    <glyph glyph-name="oacute" unicode="&#xf3;" horiz-adv-x="602" 
d="M325 598l-72 22l57 110h105zM301 -10q-62 0 -111.5 22t-84.5 59t-54 86.5t-19 103.5t19 103.5t54.5 86.5t85 59t110.5 22t110.5 -22t85 -59t54.5 -86.5t19 -103.5t-19 -103.5t-54.5 -86.5t-85 -59t-110.5 -22zM145 260q0 -38 12 -70t33 -55.5t49.5 -37t61.5 -13.5
t61.5 13.5t49.5 37.5t33 56t12 70q0 37 -12 69.5t-33 56.5t-49.5 37.5t-61.5 13.5q-32 0 -60.5 -14t-49.5 -38t-33.5 -56.5t-12.5 -69.5z" />
    <glyph glyph-name="ocircumflex" unicode="&#xf4;" horiz-adv-x="602" 
d="M157 635l104 95h79l104 -95l-59 -28l-85 63l-85 -63zM301 -10q-62 0 -111.5 22t-84.5 59t-54 86.5t-19 103.5t19 103.5t54.5 86.5t85 59t110.5 22t110.5 -22t85 -59t54.5 -86.5t19 -103.5t-19 -103.5t-54.5 -86.5t-85 -59t-110.5 -22zM145 260q0 -38 12 -70t33 -55.5
t49.5 -37t61.5 -13.5t61.5 13.5t49.5 37.5t33 56t12 70q0 37 -12 69.5t-33 56.5t-49.5 37.5t-61.5 13.5q-32 0 -60.5 -14t-49.5 -38t-33.5 -56.5t-12.5 -69.5z" />
    <glyph glyph-name="otilde" unicode="&#xf5;" horiz-adv-x="602" 
d="M301 -10q-62 0 -111.5 22t-84.5 59t-54 86.5t-19 103.5t19 103.5t54.5 86.5t85 59t110.5 22t110.5 -22t85 -59t54.5 -86.5t19 -103.5t-19 -103.5t-54.5 -86.5t-85 -59t-110.5 -22zM145 260q0 -38 12 -70t33 -55.5t49.5 -37t61.5 -13.5t61.5 13.5t49.5 37.5t33 56t12 70
q0 37 -12 69.5t-33 56.5t-49.5 37.5t-61.5 13.5q-32 0 -60.5 -14t-49.5 -38t-33.5 -56.5t-12.5 -69.5zM364 615q-23 0 -40 6.5t-31.5 15t-28.5 15t-30 6.5q-17 0 -26.5 -7t-14.5 -15.5t-6.5 -16.5t-1.5 -9h-62q0 8 5 27t17.5 38.5t33 34.5t51.5 15q22 0 38.5 -7t31 -15
t29 -15t32.5 -7t29 7t16.5 16t7 16.5t1.5 9.5h63q0 -6 -5.5 -25t-18.5 -39t-35 -35.5t-55 -15.5z" />
    <glyph glyph-name="odieresis" unicode="&#xf6;" horiz-adv-x="602" 
d="M166 615v110h92v-110h-92zM343 615v110h92v-110h-92zM301 -10q-62 0 -111.5 22t-84.5 59t-54 86.5t-19 103.5t19 103.5t54.5 86.5t85 59t110.5 22t110.5 -22t85 -59t54.5 -86.5t19 -103.5t-19 -103.5t-54.5 -86.5t-85 -59t-110.5 -22zM145 260q0 -38 12 -70t33 -55.5
t49.5 -37t61.5 -13.5t61.5 13.5t49.5 37.5t33 56t12 70q0 37 -12 69.5t-33 56.5t-49.5 37.5t-61.5 13.5q-32 0 -60.5 -14t-49.5 -38t-33.5 -56.5t-12.5 -69.5z" />
    <glyph glyph-name="divide" unicode="&#xf7;" horiz-adv-x="523" 
d="M215 411v115h93v-115h-93zM215 58v114h93v-114h-93zM60 248v88h403v-88h-403z" />
    <glyph glyph-name="oslash" unicode="&#xf8;" horiz-adv-x="602" 
d="M66 -3l51 62q-42 38 -63.5 90t-21.5 112q0 54 19 103.5t54.5 86.5t85 59t110.5 22q41 0 76 -10t65 -28l25 32h66l-51 -62q42 -38 65 -90.5t23 -112.5q0 -54 -19 -103.5t-54.5 -86.5t-85 -59t-110.5 -22q-83 0 -145 39l-26 -32h-64zM301 84q33 0 61.5 13.5t49.5 37.5
t33 56t12 70q0 35 -11 66t-30 55l-198 -272q37 -26 83 -26zM145 260q0 -35 10.5 -66t29.5 -54l196 273q-38 25 -80 25q-32 0 -60.5 -14t-49.5 -38t-33.5 -56.5t-12.5 -69.5z" />
    <glyph glyph-name="ugrave" unicode="&#xf9;" horiz-adv-x="609" 
d="M227 -10q-82 0 -124 53.5t-42 159.5v320h110v-298q0 -141 100 -141q47 0 89 29t65 84v326h110v-393q0 -19 6.5 -27t23.5 -9v-94q-17 -3 -28 -4t-21 -1q-30 0 -51 16.5t-22 42.5l-2 52q-35 -57 -91 -86.5t-123 -29.5zM182 730h105l57 -110l-70 -22z" />
    <glyph glyph-name="uacute" unicode="&#xfa;" horiz-adv-x="609" 
d="M322 598l-72 22l57 110h105zM227 -10q-82 0 -124 53.5t-42 159.5v320h110v-298q0 -141 100 -141q47 0 89 29t65 84v326h110v-393q0 -19 6.5 -27t23.5 -9v-94q-17 -3 -28 -4t-21 -1q-30 0 -51 16.5t-22 42.5l-2 52q-35 -57 -91 -86.5t-123 -29.5z" />
    <glyph glyph-name="ucircumflex" unicode="&#xfb;" horiz-adv-x="609" 
d="M154 635l104 95h79l104 -95l-59 -28l-85 63l-85 -63zM227 -10q-82 0 -124 53.5t-42 159.5v320h110v-298q0 -141 100 -141q47 0 89 29t65 84v326h110v-393q0 -19 6.5 -27t23.5 -9v-94q-17 -3 -28 -4t-21 -1q-30 0 -51 16.5t-22 42.5l-2 52q-35 -57 -91 -86.5t-123 -29.5z
" />
    <glyph glyph-name="udieresis" unicode="&#xfc;" horiz-adv-x="609" 
d="M163 615v110h92v-110h-92zM340 615v110h92v-110h-92zM227 -10q-82 0 -124 53.5t-42 159.5v320h110v-298q0 -141 100 -141q47 0 89 29t65 84v326h110v-393q0 -19 6.5 -27t23.5 -9v-94q-17 -3 -28 -4t-21 -1q-30 0 -51 16.5t-22 42.5l-2 52q-35 -57 -91 -86.5t-123 -29.5z
" />
    <glyph glyph-name="yacute" unicode="&#xfd;" horiz-adv-x="547" 
d="M84 -123q15 -3 29.5 -5t23.5 -2q13 0 22.5 5.5t19.5 19.5t20.5 39.5t24.5 65.5l-215 523h113l162 -426l144 426h104l-237 -644q-16 -45 -55.5 -75.5t-101.5 -30.5q-12 0 -25 1.5t-29 6.5v96zM308 598l-72 22l57 110h105z" />
    <glyph glyph-name="thorn" unicode="&#xfe;" horiz-adv-x="602" 
d="M571 257q-1 -55 -21.5 -105.5t-56 -88.5t-82.5 -61t-101 -23q-48 0 -82.5 20.5t-48.5 44.5v-257h-113v923h113v-245q19 27 52 49t88 22q58 0 104.5 -25t79.5 -64.5t50.5 -89.5t17.5 -100zM458 258q0 36 -10.5 68t-29.5 57t-46 39.5t-60 14.5q-48 0 -80.5 -28.5
t-52.5 -68.5v-166q0 -17 12 -34t30.5 -30.5t41.5 -22t44 -8.5q33 0 60.5 14.5t48 39.5t31.5 57t11 68z" />
    <glyph glyph-name="ydieresis" unicode="&#xff;" horiz-adv-x="547" 
d="M84 -123q15 -3 29.5 -5t23.5 -2q13 0 22.5 5.5t19.5 19.5t20.5 39.5t24.5 65.5l-215 523h113l162 -426l144 426h104l-237 -644q-16 -45 -55.5 -75.5t-101.5 -30.5q-12 0 -25 1.5t-29 6.5v96zM149 615v110h92v-110h-92zM326 615v110h92v-110h-92z" />
    <glyph glyph-name="Amacron" unicode="&#x100;" horiz-adv-x="675" 
d="M289 710h98l280 -710h-118l-75 193h-274l-74 -193h-119zM452 276l-114 305l-118 -305h232zM190 830v70h296v-70h-296z" />
    <glyph glyph-name="amacron" unicode="&#x101;" horiz-adv-x="564" 
d="M205 -10q-38 0 -70.5 12.5t-56 34.5t-37 52t-13.5 65q0 37 16 67t45.5 52t70 34t89.5 12q37 0 73 -6.5t65 -17.5v36q0 58 -33 90.5t-95 32.5q-42 0 -82.5 -15.5t-83.5 -44.5l-34 70q101 68 210 68q108 0 168 -55t60 -158v-189q0 -35 29 -36v-94q-16 -3 -27.5 -4t-22.5 -1
q-32 0 -49.5 16t-21.5 41l-3 33q-35 -46 -86.5 -70.5t-110.5 -24.5zM235 71q40 0 75.5 14.5t55.5 40.5q21 18 21 38v69q-28 11 -59.5 17t-61.5 6q-59 0 -96.5 -25.5t-37.5 -67.5q0 -39 29 -65.5t74 -26.5zM122 644v70h296v-70h-296z" />
    <glyph glyph-name="Abreve" unicode="&#x102;" horiz-adv-x="675" 
d="M289 710h98l280 -710h-118l-75 193h-274l-74 -193h-119zM452 276l-114 305l-118 -305h232zM338 845q22 0 38.5 20t19.5 51h61q0 -26 -9 -48.5t-25 -39t-38 -25.5t-47 -9q-26 0 -47.5 9t-37.5 25.5t-25 39t-9 48.5h61q0 -29 17.5 -50t40.5 -21z" />
    <glyph glyph-name="abreve" unicode="&#x103;" horiz-adv-x="564" 
d="M205 -10q-38 0 -70.5 12.5t-56 34.5t-37 52t-13.5 65q0 37 16 67t45.5 52t70 34t89.5 12q37 0 73 -6.5t65 -17.5v36q0 58 -33 90.5t-95 32.5q-42 0 -82.5 -15.5t-83.5 -44.5l-34 70q101 68 210 68q108 0 168 -55t60 -158v-189q0 -35 29 -36v-94q-16 -3 -27.5 -4t-22.5 -1
q-32 0 -49.5 16t-21.5 41l-3 33q-35 -46 -86.5 -70.5t-110.5 -24.5zM235 71q40 0 75.5 14.5t55.5 40.5q21 18 21 38v69q-28 11 -59.5 17t-61.5 6q-59 0 -96.5 -25.5t-37.5 -67.5q0 -39 29 -65.5t74 -26.5zM269 659q22 0 38.5 20t19.5 51h61q0 -26 -9 -48.5t-25 -39
t-38 -25.5t-47 -9q-26 0 -47.5 9t-37.5 25.5t-25 39t-9 48.5h61q0 -29 17.5 -50t40.5 -21z" />
    <glyph glyph-name="Aogonek" unicode="&#x104;" horiz-adv-x="677" 
d="M620 -188q-49 8 -74 30.5t-25 51.5q0 55 79 106h-51l-75 193h-274l-74 -193h-119l282 710h98l280 -710q-42 -26 -61 -47t-19 -42q0 -37 58 -41zM452 276l-114 305l-118 -305h232z" />
    <glyph glyph-name="aogonek" unicode="&#x105;" horiz-adv-x="564" 
d="M479 -188q-49 8 -74 30.5t-25 51.5q0 53 75 103q-22 5 -34.5 20t-15.5 35l-3 33q-35 -46 -86.5 -70.5t-110.5 -24.5q-38 0 -70.5 12.5t-56 34.5t-37 52t-13.5 65q0 37 16 67t45.5 52t70 34t89.5 12q37 0 73 -6.5t65 -17.5v36q0 58 -33 90.5t-95 32.5q-42 0 -82.5 -15.5
t-83.5 -44.5l-34 70q101 68 210 68q108 0 168 -55t60 -158v-189q0 -35 29 -36v-94q-42 -26 -61 -47t-19 -42q0 -37 58 -41zM235 71q40 0 75.5 14.5t55.5 40.5q21 18 21 38v69q-28 11 -59.5 17t-61.5 6q-59 0 -96.5 -25.5t-37.5 -67.5q0 -39 29 -65.5t74 -26.5z" />
    <glyph glyph-name="Cacute" unicode="&#x106;" horiz-adv-x="684" 
d="M404 784l-72 22l57 110h105zM35 360q0 64 23 127.5t67.5 114t108.5 81.5t145 31q97 0 166 -43t104 -112l-88 -59q-15 32 -36 54t-46 35t-52 18.5t-52 5.5q-56 0 -98 -22.5t-70.5 -59.5t-43 -83t-14.5 -92q0 -52 17 -99t47.5 -83t72.5 -57.5t92 -21.5q26 0 53.5 6.5t53 21
t47 36.5t35.5 53l93 -53q-17 -40 -48 -70.5t-70 -51.5t-82.5 -32t-85.5 -11q-75 0 -137 32t-107 83.5t-70 117t-25 133.5z" />
    <glyph glyph-name="cacute" unicode="&#x107;" horiz-adv-x="559" 
d="M326 598l-72 22l57 110h105zM32 262q0 55 19 104t54.5 86t85.5 58.5t112 21.5q81 0 139.5 -35.5t87.5 -94.5l-107 -34q-19 33 -51 51.5t-71 18.5q-33 0 -61.5 -13t-49.5 -36.5t-33 -55.5t-12 -71q0 -38 12.5 -70.5t34 -56.5t50 -37.5t60.5 -13.5q20 0 40 5.5t36.5 15.5
t29 23t18.5 28l108 -32q-26 -59 -87 -96.5t-144 -37.5q-61 0 -111 22t-85.5 59.5t-55 86.5t-19.5 104z" />
    <glyph glyph-name="Ccircumflex" unicode="&#x108;" horiz-adv-x="684" 
d="M234 821l104 95h79l104 -95l-59 -28l-85 63l-85 -63zM35 360q0 64 23 127.5t67.5 114t108.5 81.5t145 31q97 0 166 -43t104 -112l-88 -59q-15 32 -36 54t-46 35t-52 18.5t-52 5.5q-56 0 -98 -22.5t-70.5 -59.5t-43 -83t-14.5 -92q0 -52 17 -99t47.5 -83t72.5 -57.5
t92 -21.5q26 0 53.5 6.5t53 21t47 36.5t35.5 53l93 -53q-17 -40 -48 -70.5t-70 -51.5t-82.5 -32t-85.5 -11q-75 0 -137 32t-107 83.5t-70 117t-25 133.5z" />
    <glyph glyph-name="ccircumflex" unicode="&#x109;" horiz-adv-x="559" 
d="M158 635l104 95h79l104 -95l-59 -28l-85 63l-85 -63zM32 262q0 55 19 104t54.5 86t85.5 58.5t112 21.5q81 0 139.5 -35.5t87.5 -94.5l-107 -34q-19 33 -51 51.5t-71 18.5q-33 0 -61.5 -13t-49.5 -36.5t-33 -55.5t-12 -71q0 -38 12.5 -70.5t34 -56.5t50 -37.5t60.5 -13.5
q20 0 40 5.5t36.5 15.5t29 23t18.5 28l108 -32q-26 -59 -87 -96.5t-144 -37.5q-61 0 -111 22t-85.5 59.5t-55 86.5t-19.5 104z" />
    <glyph glyph-name="Cdotaccent" unicode="&#x10a;" horiz-adv-x="684" 
d="M35 360q0 64 23 127.5t67.5 114t108.5 81.5t145 31q97 0 166 -43t104 -112l-88 -59q-15 32 -36 54t-46 35t-52 18.5t-52 5.5q-56 0 -98 -22.5t-70.5 -59.5t-43 -83t-14.5 -92q0 -52 17 -99t47.5 -83t72.5 -57.5t92 -21.5q26 0 53.5 6.5t53 21t47 36.5t35.5 53l93 -53
q-17 -40 -48 -70.5t-70 -51.5t-82.5 -32t-85.5 -11q-75 0 -137 32t-107 83.5t-70 117t-25 133.5zM329 801v115h99v-115h-99z" />
    <glyph glyph-name="cdotaccent" unicode="&#x10b;" horiz-adv-x="559" 
d="M32 262q0 55 19 104t54.5 86t85.5 58.5t112 21.5q81 0 139.5 -35.5t87.5 -94.5l-107 -34q-19 33 -51 51.5t-71 18.5q-33 0 -61.5 -13t-49.5 -36.5t-33 -55.5t-12 -71q0 -38 12.5 -70.5t34 -56.5t50 -37.5t60.5 -13.5q20 0 40 5.5t36.5 15.5t29 23t18.5 28l108 -32
q-26 -59 -87 -96.5t-144 -37.5q-61 0 -111 22t-85.5 59.5t-55 86.5t-19.5 104zM252 615v115h99v-115h-99z" />
    <glyph glyph-name="Ccaron" unicode="&#x10c;" horiz-adv-x="684" 
d="M295 916l85 -63l85 63l59 -28l-104 -95h-79l-104 95zM35 360q0 64 23 127.5t67.5 114t108.5 81.5t145 31q97 0 166 -43t104 -112l-88 -59q-15 32 -36 54t-46 35t-52 18.5t-52 5.5q-56 0 -98 -22.5t-70.5 -59.5t-43 -83t-14.5 -92q0 -52 17 -99t47.5 -83t72.5 -57.5
t92 -21.5q26 0 53.5 6.5t53 21t47 36.5t35.5 53l93 -53q-17 -40 -48 -70.5t-70 -51.5t-82.5 -32t-85.5 -11q-75 0 -137 32t-107 83.5t-70 117t-25 133.5z" />
    <glyph glyph-name="ccaron" unicode="&#x10d;" horiz-adv-x="559" 
d="M216 730l85 -63l85 63l59 -28l-104 -95h-79l-104 95zM32 262q0 55 19 104t54.5 86t85.5 58.5t112 21.5q81 0 139.5 -35.5t87.5 -94.5l-107 -34q-19 33 -51 51.5t-71 18.5q-33 0 -61.5 -13t-49.5 -36.5t-33 -55.5t-12 -71q0 -38 12.5 -70.5t34 -56.5t50 -37.5t60.5 -13.5
q20 0 40 5.5t36.5 15.5t29 23t18.5 28l108 -32q-26 -59 -87 -96.5t-144 -37.5q-61 0 -111 22t-85.5 59.5t-55 86.5t-19.5 104z" />
    <glyph glyph-name="Dcaron" unicode="&#x10e;" horiz-adv-x="716" 
d="M250 916l85 -63l85 63l59 -28l-104 -95h-79l-104 95zM80 0v710h252q86 0 150.5 -28t108 -76t65.5 -112.5t22 -137.5q0 -81 -24.5 -146.5t-69.5 -112t-109 -72t-143 -25.5h-252zM564 356q0 56 -15.5 103t-45.5 80.5t-73 52.5t-98 19h-140v-512h140q56 0 99.5 19.5t73 54
t44.5 81.5t15 102z" />
    <glyph glyph-name="dcaron" unicode="&#x10f;" horiz-adv-x="637" 
d="M665 598l-72 22l57 110h105zM279 -10q-53 0 -98 21.5t-78 58.5t-51.5 86.5t-18.5 106.5q0 55 17.5 103.5t49 85.5t74 58.5t93.5 21.5q63 0 111 -30.5t75 -77.5v306h110v-600q0 -19 6.5 -27t23.5 -9v-94q-17 -3 -27.5 -4t-17.5 -1q-33 0 -54 17t-23 44l-2 39
q-29 -49 -79 -77t-111 -28zM306 84q24 0 48 8t44 22t34.5 33t20.5 41v137q-9 25 -25.5 46t-37.5 36t-44.5 23t-47.5 8q-33 0 -60.5 -15t-47.5 -40t-31.5 -57t-11.5 -66q0 -36 12.5 -68t34.5 -56t50.5 -38t61.5 -14z" />
    <glyph glyph-name="Dcroat" unicode="&#x110;" horiz-adv-x="722" 
d="M86 0v315h-53v84h53v311h252q86 0 150.5 -28t108 -76t65.5 -112.5t22 -137.5q0 -81 -24.5 -146.5t-69.5 -112t-109 -72t-143 -25.5h-252zM570 356q0 56 -15.5 103t-45.5 80.5t-73 52.5t-98 19h-140v-212h151v-84h-151v-216h140q56 0 99.5 19.5t73 54t44.5 81.5t15 102z
" />
    <glyph glyph-name="dcroat" unicode="&#x111;" horiz-adv-x="637" 
d="M279 -10q-53 0 -98 21.5t-78 58.5t-51.5 86.5t-18.5 106.5q0 55 17.5 103.5t49 85.5t74 58.5t93.5 21.5q63 0 111 -30.5t75 -77.5v180h-105v68h105v58h110v-58h66v-68h-66v-474q0 -19 6.5 -27t23.5 -9v-94q-17 -3 -27.5 -4t-17.5 -1q-33 0 -54 17t-23 44l-2 39
q-29 -49 -79 -77t-111 -28zM306 84q24 0 48 8t44 22t34.5 33t20.5 41v137q-9 25 -25.5 46t-37.5 36t-44.5 23t-47.5 8q-33 0 -60.5 -15t-47.5 -40t-31.5 -57t-11.5 -66q0 -36 12.5 -68t34.5 -56t50.5 -38t61.5 -14z" />
    <glyph glyph-name="Emacron" unicode="&#x112;" horiz-adv-x="603" 
d="M567 99v-99h-487v710h478v-99h-366v-202h317v-93h-317v-217h375zM183 830v70h296v-70h-296z" />
    <glyph glyph-name="emacron" unicode="&#x113;" horiz-adv-x="595" 
d="M303 -10q-61 0 -111 21.5t-85.5 58.5t-55 86t-19.5 104t19.5 104.5t55 87t85.5 59t112 21.5q61 0 110.5 -22t84.5 -58.5t53.5 -85t18.5 -101.5q0 -12 -1 -22.5t-2 -17.5h-419q3 -35 16.5 -63t35 -48.5t49 -31.5t57.5 -11q22 0 43.5 5.5t39.5 16t32 25.5t22 33l94 -27
q-27 -59 -89.5 -96.5t-145.5 -37.5zM462 301q-3 33 -16.5 61t-34.5 47.5t-49 30.5t-59 11t-58.5 -11t-48.5 -30.5t-34 -47.5t-16 -61h316zM153 644v70h296v-70h-296z" />
    <glyph glyph-name="Ebreve" unicode="&#x114;" horiz-adv-x="603" 
d="M567 99v-99h-487v710h478v-99h-366v-202h317v-93h-317v-217h375zM330 845q22 0 38.5 20t19.5 51h61q0 -26 -9 -48.5t-25 -39t-38 -25.5t-47 -9q-26 0 -47.5 9t-37.5 25.5t-25 39t-9 48.5h61q0 -29 17.5 -50t40.5 -21z" />
    <glyph glyph-name="ebreve" unicode="&#x115;" horiz-adv-x="595" 
d="M303 -10q-61 0 -111 21.5t-85.5 58.5t-55 86t-19.5 104t19.5 104.5t55 87t85.5 59t112 21.5q61 0 110.5 -22t84.5 -58.5t53.5 -85t18.5 -101.5q0 -12 -1 -22.5t-2 -17.5h-419q3 -35 16.5 -63t35 -48.5t49 -31.5t57.5 -11q22 0 43.5 5.5t39.5 16t32 25.5t22 33l94 -27
q-27 -59 -89.5 -96.5t-145.5 -37.5zM462 301q-3 33 -16.5 61t-34.5 47.5t-49 30.5t-59 11t-58.5 -11t-48.5 -30.5t-34 -47.5t-16 -61h316zM301 659q22 0 38.5 20t19.5 51h61q0 -26 -9 -48.5t-25 -39t-38 -25.5t-47 -9q-26 0 -47.5 9t-37.5 25.5t-25 39t-9 48.5h61
q0 -29 17.5 -50t40.5 -21z" />
    <glyph glyph-name="Edotaccent" unicode="&#x116;" horiz-adv-x="603" 
d="M567 99v-99h-487v710h478v-99h-366v-202h317v-93h-317v-217h375zM280 801v115h99v-115h-99z" />
    <glyph glyph-name="edotaccent" unicode="&#x117;" horiz-adv-x="595" 
d="M303 -10q-61 0 -111 21.5t-85.5 58.5t-55 86t-19.5 104t19.5 104.5t55 87t85.5 59t112 21.5q61 0 110.5 -22t84.5 -58.5t53.5 -85t18.5 -101.5q0 -12 -1 -22.5t-2 -17.5h-419q3 -35 16.5 -63t35 -48.5t49 -31.5t57.5 -11q22 0 43.5 5.5t39.5 16t32 25.5t22 33l94 -27
q-27 -59 -89.5 -96.5t-145.5 -37.5zM462 301q-3 33 -16.5 61t-34.5 47.5t-49 30.5t-59 11t-58.5 -11t-48.5 -30.5t-34 -47.5t-16 -61h316zM251 615v115h99v-115h-99z" />
    <glyph glyph-name="Eogonek" unicode="&#x118;" horiz-adv-x="603" 
d="M567 99v-99q-42 -26 -61 -47t-19 -42q0 -37 58 -41l-25 -58q-49 8 -74 30.5t-25 51.5q0 55 79 106h-420v710h478v-99h-366v-202h317v-93h-317v-217h375z" />
    <glyph glyph-name="eogonek" unicode="&#x119;" horiz-adv-x="595" 
d="M316 -192q-49 8 -74 30.5t-25 51.5q0 51 70 101q-58 3 -105 25t-80.5 58.5t-51.5 84.5t-18 101q0 55 19.5 104.5t55 87t85.5 59t112 21.5q61 0 110.5 -22t84.5 -58.5t53.5 -85t18.5 -101.5q0 -12 -1 -22.5t-2 -17.5h-419q3 -35 16.5 -63t35 -48.5t49 -31.5t57.5 -11
q22 0 43.5 5.5t39.5 16t32 25.5t22 33l94 -27q-22 -48 -68 -82t-107 -46q-42 -26 -61 -47t-19 -42q0 -37 58 -41zM462 301q-3 33 -16.5 61t-34.5 47.5t-49 30.5t-59 11t-58.5 -11t-48.5 -30.5t-34 -47.5t-16 -61h316z" />
    <glyph glyph-name="Ecaron" unicode="&#x11a;" horiz-adv-x="603" 
d="M245 916l85 -63l85 63l59 -28l-104 -95h-79l-104 95zM567 99v-99h-487v710h478v-99h-366v-202h317v-93h-317v-217h375z" />
    <glyph glyph-name="ecaron" unicode="&#x11b;" horiz-adv-x="595" 
d="M215 730l85 -63l85 63l59 -28l-104 -95h-79l-104 95zM303 -10q-61 0 -111 21.5t-85.5 58.5t-55 86t-19.5 104t19.5 104.5t55 87t85.5 59t112 21.5q61 0 110.5 -22t84.5 -58.5t53.5 -85t18.5 -101.5q0 -12 -1 -22.5t-2 -17.5h-419q3 -35 16.5 -63t35 -48.5t49 -31.5
t57.5 -11q22 0 43.5 5.5t39.5 16t32 25.5t22 33l94 -27q-27 -59 -89.5 -96.5t-145.5 -37.5zM462 301q-3 33 -16.5 61t-34.5 47.5t-49 30.5t-59 11t-58.5 -11t-48.5 -30.5t-34 -47.5t-16 -61h316z" />
    <glyph glyph-name="Gcircumflex" unicode="&#x11c;" horiz-adv-x="719" 
d="M230 821l104 95h79l104 -95l-59 -28l-85 63l-85 -63zM577 88q-90 -93 -207 -93q-71 0 -132 29.5t-106 79.5t-70.5 116t-25.5 138t25.5 137t70.5 114t107 77.5t135 28.5q102 0 171 -42.5t104 -112.5l-86 -62q-29 58 -80 87t-112 29q-50 0 -91 -21.5t-70 -57t-44.5 -82.5
t-15.5 -98q0 -54 17.5 -101t48 -82t72.5 -55.5t91 -20.5q54 0 103.5 25t94.5 79v76h-149v83h243v-359h-94v88z" />
    <glyph glyph-name="gcircumflex" unicode="&#x11d;" horiz-adv-x="628" 
d="M191 635l104 95h79l104 -95l-59 -28l-85 63l-85 -63zM272 -5q-53 0 -97 21.5t-75.5 58.5t-49 85t-17.5 101q0 56 18 105.5t50 86t76.5 58t98.5 21.5q63 0 110.5 -30t78.5 -78v99h97v-508q0 -57 -21 -101t-58.5 -74.5t-88.5 -46.5t-110 -16q-87 0 -144.5 29.5t-96.5 82.5
l62 58q30 -42 77.5 -64t101.5 -22q34 0 64.5 9t53.5 28t36.5 48t13.5 69v80q-28 -48 -77 -74t-103 -26zM308 84q25 0 48 8.5t42.5 23t33.5 33t20 39.5v137q-10 25 -26 45.5t-36.5 35.5t-43.5 23.5t-46 8.5q-36 0 -64.5 -15.5t-48.5 -41t-31 -57.5t-11 -66q0 -36 12.5 -67.5
t34.5 -55t51.5 -37.5t64.5 -14z" />
    <glyph glyph-name="Gbreve" unicode="&#x11e;" horiz-adv-x="719" 
d="M577 88q-90 -93 -207 -93q-71 0 -132 29.5t-106 79.5t-70.5 116t-25.5 138t25.5 137t70.5 114t107 77.5t135 28.5q102 0 171 -42.5t104 -112.5l-86 -62q-29 58 -80 87t-112 29q-50 0 -91 -21.5t-70 -57t-44.5 -82.5t-15.5 -98q0 -54 17.5 -101t48 -82t72.5 -55.5
t91 -20.5q54 0 103.5 25t94.5 79v76h-149v83h243v-359h-94v88zM374 845q22 0 38.5 20t19.5 51h61q0 -26 -9 -48.5t-25 -39t-38 -25.5t-47 -9q-26 0 -47.5 9t-37.5 25.5t-25 39t-9 48.5h61q0 -29 17.5 -50t40.5 -21z" />
    <glyph glyph-name="gbreve" unicode="&#x11f;" horiz-adv-x="628" 
d="M272 -5q-53 0 -97 21.5t-75.5 58.5t-49 85t-17.5 101q0 56 18 105.5t50 86t76.5 58t98.5 21.5q63 0 110.5 -30t78.5 -78v99h97v-508q0 -57 -21 -101t-58.5 -74.5t-88.5 -46.5t-110 -16q-87 0 -144.5 29.5t-96.5 82.5l62 58q30 -42 77.5 -64t101.5 -22q34 0 64.5 9
t53.5 28t36.5 48t13.5 69v80q-28 -48 -77 -74t-103 -26zM308 84q25 0 48 8.5t42.5 23t33.5 33t20 39.5v137q-10 25 -26 45.5t-36.5 35.5t-43.5 23.5t-46 8.5q-36 0 -64.5 -15.5t-48.5 -41t-31 -57.5t-11 -66q0 -36 12.5 -67.5t34.5 -55t51.5 -37.5t64.5 -14zM335 659
q22 0 38.5 20t19.5 51h61q0 -26 -9 -48.5t-25 -39t-38 -25.5t-47 -9q-26 0 -47.5 9t-37.5 25.5t-25 39t-9 48.5h61q0 -29 17.5 -50t40.5 -21z" />
    <glyph glyph-name="Gdotaccent" unicode="&#x120;" horiz-adv-x="719" 
d="M577 88q-90 -93 -207 -93q-71 0 -132 29.5t-106 79.5t-70.5 116t-25.5 138t25.5 137t70.5 114t107 77.5t135 28.5q102 0 171 -42.5t104 -112.5l-86 -62q-29 58 -80 87t-112 29q-50 0 -91 -21.5t-70 -57t-44.5 -82.5t-15.5 -98q0 -54 17.5 -101t48 -82t72.5 -55.5
t91 -20.5q54 0 103.5 25t94.5 79v76h-149v83h243v-359h-94v88zM324 801v115h99v-115h-99z" />
    <glyph glyph-name="gdotaccent" unicode="&#x121;" horiz-adv-x="628" 
d="M272 -5q-53 0 -97 21.5t-75.5 58.5t-49 85t-17.5 101q0 56 18 105.5t50 86t76.5 58t98.5 21.5q63 0 110.5 -30t78.5 -78v99h97v-508q0 -57 -21 -101t-58.5 -74.5t-88.5 -46.5t-110 -16q-87 0 -144.5 29.5t-96.5 82.5l62 58q30 -42 77.5 -64t101.5 -22q34 0 64.5 9
t53.5 28t36.5 48t13.5 69v80q-28 -48 -77 -74t-103 -26zM308 84q25 0 48 8.5t42.5 23t33.5 33t20 39.5v137q-10 25 -26 45.5t-36.5 35.5t-43.5 23.5t-46 8.5q-36 0 -64.5 -15.5t-48.5 -41t-31 -57.5t-11 -66q0 -36 12.5 -67.5t34.5 -55t51.5 -37.5t64.5 -14zM285 615v115h99
v-115h-99z" />
    <glyph glyph-name="Gcommaaccent" unicode="&#x122;" horiz-adv-x="719" 
d="M332 -213l23 77h-32v88h95v-88l-35 -77h-51zM577 88q-90 -93 -207 -93q-71 0 -132 29.5t-106 79.5t-70.5 116t-25.5 138t25.5 137t70.5 114t107 77.5t135 28.5q102 0 171 -42.5t104 -112.5l-86 -62q-29 58 -80 87t-112 29q-50 0 -91 -21.5t-70 -57t-44.5 -82.5t-15.5 -98
q0 -54 17.5 -101t48 -82t72.5 -55.5t91 -20.5q54 0 103.5 25t94.5 79v76h-149v83h243v-359h-94v88z" />
    <glyph glyph-name="gcommaaccent" unicode="&#x123;" horiz-adv-x="628" 
d="M357 746l-23 -77h32v-88h-95v88l35 77h51zM272 -5q-53 0 -97 21.5t-75.5 58.5t-49 85t-17.5 101q0 56 18 105.5t50 86t76.5 58t98.5 21.5q63 0 110.5 -30t78.5 -78v99h97v-508q0 -57 -21 -101t-58.5 -74.5t-88.5 -46.5t-110 -16q-87 0 -144.5 29.5t-96.5 82.5l62 58
q30 -42 77.5 -64t101.5 -22q34 0 64.5 9t53.5 28t36.5 48t13.5 69v80q-28 -48 -77 -74t-103 -26zM308 84q25 0 48 8.5t42.5 23t33.5 33t20 39.5v137q-10 25 -26 45.5t-36.5 35.5t-43.5 23.5t-46 8.5q-36 0 -64.5 -15.5t-48.5 -41t-31 -57.5t-11 -66q0 -36 12.5 -67.5
t34.5 -55t51.5 -37.5t64.5 -14z" />
    <glyph glyph-name="Hcircumflex" unicode="&#x124;" horiz-adv-x="743" 
d="M231 820l104 95h79l104 -95l-59 -28l-85 63l-85 -63zM663 710v-710h-113v313h-358v-313h-112v710h112v-297h358v297h113z" />
    <glyph glyph-name="hcircumflex" unicode="&#x125;" horiz-adv-x="597" 
d="M236 635l94 94h71l94 -94l-53 -27l-77 62l-77 -62zM535 0h-110v293q0 72 -25.5 106.5t-73.5 34.5q-23 0 -46 -9t-43.5 -25.5t-36.5 -39t-24 -49.5v-311h-110v730h110v-312q30 54 81.5 84t112.5 30q49 0 80.5 -17.5t50.5 -46.5t26.5 -67.5t7.5 -81.5v-319z" />
    <glyph glyph-name="Hbar" unicode="&#x126;" 
d="M668 710v-108h50v-56h-50v-546h-113v313h-358v-313h-112v546h-51v56h51v108h112v-108h358v108h113zM555 413v133h-358v-133h358z" />
    <glyph glyph-name="hbar" unicode="&#x127;" horiz-adv-x="597" 
d="M535 0h-110v293q0 72 -25.5 106.5t-73.5 34.5q-23 0 -46 -9t-43.5 -25.5t-36.5 -39t-24 -49.5v-311h-110v604h-50v68h50v58h110v-58h121v-68h-121v-186q30 54 81.5 84t112.5 30q49 0 80.5 -17.5t50.5 -46.5t26.5 -67.5t7.5 -81.5v-319z" />
    <glyph glyph-name="Itilde" unicode="&#x128;" horiz-adv-x="272" 
d="M80 0v710h112v-710h-112zM199 801q-23 0 -40 6.5t-31.5 15t-28.5 15t-30 6.5q-17 0 -26.5 -7t-14.5 -15.5t-6.5 -16.5t-1.5 -9h-62q0 8 5 27t17.5 38.5t33 34.5t51.5 15q22 0 38.5 -7t31 -15t29 -15t32.5 -7t29 7t16.5 16t7 16.5t1.5 9.5h63q0 -6 -5.5 -25t-18.5 -39
t-35 -35.5t-55 -15.5z" />
    <glyph glyph-name="itilde" unicode="&#x129;" horiz-adv-x="242" 
d="M66 0v523h110v-523h-110zM184 615q-23 0 -40 6.5t-31.5 15t-28.5 15t-30 6.5q-17 0 -26.5 -7t-14.5 -15.5t-6.5 -16.5t-1.5 -9h-62q0 8 5 27t17.5 38.5t33 34.5t51.5 15q22 0 38.5 -7t31 -15t29 -15t32.5 -7t29 7t16.5 16t7 16.5t1.5 9.5h63q0 -6 -5.5 -25t-18.5 -39
t-35 -35.5t-55 -15.5z" />
    <glyph glyph-name="Imacron" unicode="&#x12a;" horiz-adv-x="272" 
d="M80 0v710h112v-710h-112zM-11 830v70h296v-70h-296z" />
    <glyph glyph-name="imacron" unicode="&#x12b;" horiz-adv-x="242" 
d="M66 0v523h110v-523h-110zM-26 644v70h296v-70h-296z" />
    <glyph glyph-name="Ibreve" unicode="&#x12c;" horiz-adv-x="272" 
d="M80 0v710h112v-710h-112zM136 845q22 0 38.5 20t19.5 51h61q0 -26 -9 -48.5t-25 -39t-38 -25.5t-47 -9q-26 0 -47.5 9t-37.5 25.5t-25 39t-9 48.5h61q0 -29 17.5 -50t40.5 -21z" />
    <glyph glyph-name="ibreve" unicode="&#x12d;" horiz-adv-x="242" 
d="M66 0v523h110v-523h-110zM121 659q22 0 38.5 20t19.5 51h61q0 -26 -9 -48.5t-25 -39t-38 -25.5t-47 -9q-26 0 -47.5 9t-37.5 25.5t-25 39t-9 48.5h61q0 -29 17.5 -50t40.5 -21z" />
    <glyph glyph-name="Iogonek" unicode="&#x12e;" horiz-adv-x="273" 
d="M145 -188q-49 8 -74 30.5t-25 51.5q0 55 79 106h-45v710h112v-710q-42 -26 -61 -47t-19 -42q0 -37 58 -41z" />
    <glyph glyph-name="iogonek" unicode="&#x12f;" horiz-adv-x="242" 
d="M129 -188q-49 8 -74 30.5t-25 51.5q0 55 79 106h-43v523h110v-523q-42 -26 -61 -47t-19 -42q0 -37 58 -41zM66 609v121h110v-121h-110z" />
    <glyph glyph-name="Idotaccent" unicode="&#x130;" horiz-adv-x="272" 
d="M80 0v710h112v-710h-112zM86 801v115h99v-115h-99z" />
    <glyph glyph-name="dotlessi" unicode="&#x131;" horiz-adv-x="242" 
d="M66 0v523h110v-523h-110z" />
    <glyph glyph-name="IJ" unicode="&#x132;" horiz-adv-x="760" 
d="M80 0v710h112v-710h-112zM309 125q17 -12 50.5 -23.5t76.5 -11.5q46 0 73.5 16.5t42 49t19 81t4.5 112.5v361h113v-361q0 -81 -8 -147.5t-34 -113.5t-76 -73t-134 -26q-90 0 -154 44z" />
    <glyph glyph-name="ij" unicode="&#x133;" horiz-adv-x="491" 
d="M66 0v523h110v-523h-110zM66 609v121h110v-121h-110zM253 -191q-36 0 -68 11t-58 34l49 74q13 -12 30 -17.5t34 -5.5q29 0 51.5 21.5t22.5 54.5v542h110v-534q0 -40 -13.5 -73t-37 -57t-54.5 -37t-66 -13zM314 609v121h110v-121h-110z" />
    <glyph glyph-name="Jcircumflex" unicode="&#x134;" horiz-adv-x="488" 
d="M218 821l104 95h79l104 -95l-59 -28l-85 63l-85 -63zM37 125q17 -12 50.5 -23.5t76.5 -11.5q46 0 73.5 16.5t42 49t19 81t4.5 112.5v361h113v-361q0 -81 -8 -147.5t-34 -113.5t-76 -73t-134 -26q-90 0 -154 44z" />
    <glyph glyph-name="jcircumflex" unicode="&#x135;" horiz-adv-x="242" 
d="M5 -191q-36 0 -68.5 11t-58.5 34l49 74q14 -12 31 -17.5t34 -5.5q29 0 51.5 21.5t22.5 54.5v542h110v-534q0 -40 -14 -73t-37 -57t-54.5 -37t-65.5 -13zM-22 635l104 95h79l104 -95l-59 -28l-85 63l-85 -63z" />
    <glyph glyph-name="Kcommaaccent" unicode="&#x136;" horiz-adv-x="660" 
d="M302 -213l23 77h-32v88h95v-88l-35 -77h-51zM80 0v709h112v-365l334 366h124l-280 -314l296 -396h-125l-240 327l-109 -113v-214h-112z" />
    <glyph glyph-name="kcommaaccent" unicode="&#x137;" horiz-adv-x="548" 
d="M242 -213l23 77h-32v88h95v-88l-35 -77h-51zM430 0l-167 241l-87 -82v-159h-110v730h110v-463l240 255h120l-203 -219l214 -303h-117z" />
    <glyph glyph-name="kgreenlandic" unicode="&#x138;" horiz-adv-x="548" 
d="M430 0l-167 241l-87 -82v-159h-110v523h110v-256l240 255h120l-203 -219l214 -303h-117z" />
    <glyph glyph-name="Lacute" unicode="&#x139;" horiz-adv-x="584" 
d="M378 784l-72 22l57 110h105zM80 0v710h112v-611h381v-99h-493z" />
    <glyph glyph-name="lacute" unicode="&#x13a;" horiz-adv-x="301" 
d="M142 768l-72 22l57 110h105zM67 730h110v-579q0 -29 15 -45.5t42 -16.5q11 0 25.5 4t27.5 9l16 -86q-24 -11 -57 -17.5t-59 -6.5q-57 0 -88.5 31t-31.5 88v619z" />
    <glyph glyph-name="Lcommaaccent" unicode="&#x13b;" horiz-adv-x="584" 
d="M293 -213l23 77h-32v88h95v-88l-35 -77h-51zM80 0v710h112v-611h381v-99h-493z" />
    <glyph glyph-name="lcommaaccent" unicode="&#x13c;" horiz-adv-x="301" 
d="M142 -213l23 77h-32v88h95v-88l-35 -77h-51zM67 730h110v-579q0 -29 15 -45.5t42 -16.5q11 0 25.5 4t27.5 9l16 -86q-24 -11 -57 -17.5t-59 -6.5q-57 0 -88.5 31t-31.5 88v619z" />
    <glyph glyph-name="Lcaron" unicode="&#x13d;" horiz-adv-x="584" 
d="M402 598l-72 22l57 110h105zM80 0v710h112v-611h381v-99h-493z" />
    <glyph glyph-name="lcaron" unicode="&#x13e;" horiz-adv-x="301" 
d="M290 598l-72 22l57 110h105zM67 730h110v-579q0 -29 15 -45.5t42 -16.5q11 0 25.5 4t27.5 9l16 -86q-24 -11 -57 -17.5t-59 -6.5q-57 0 -88.5 31t-31.5 88v619z" />
    <glyph glyph-name="Ldot" unicode="&#x13f;" horiz-adv-x="584" 
d="M80 0v710h112v-611h381v-99h-493zM366 337v137h91v-137h-91z" />
    <glyph glyph-name="ldot" unicode="&#x140;" horiz-adv-x="367" 
d="M67 730h110v-579q0 -29 15 -45.5t42 -16.5q11 0 25.5 4t27.5 9l16 -86q-24 -11 -57 -17.5t-59 -6.5q-57 0 -88.5 31t-31.5 88v619zM259 275v137h91v-137h-91z" />
    <glyph glyph-name="Lslash" unicode="&#x141;" horiz-adv-x="592" 
d="M88 0v275l-54 -38l-30 61l84 59v353h112v-275l127 89l29 -60l-156 -110v-255h381v-99h-493z" />
    <glyph glyph-name="lslash" unicode="&#x142;" horiz-adv-x="325" 
d="M90 313l-56 -37l-30 61l86 56v337h110v-264l86 57l31 -60l-117 -78v-234q0 -29 15 -45.5t42 -16.5q11 0 25.5 4t27.5 9l16 -86q-24 -11 -57 -17.5t-59 -6.5q-57 0 -88.5 31t-31.5 88v202z" />
    <glyph glyph-name="Nacute" unicode="&#x143;" horiz-adv-x="767" 
d="M409 783l-72 22l57 110h105zM192 500v-500h-112v710h88l406 -512v511h113v-709h-93z" />
    <glyph glyph-name="nacute" unicode="&#x144;" horiz-adv-x="597" 
d="M334 598l-72 22l57 110h105zM535 0h-110v293q0 74 -23.5 107.5t-69.5 33.5q-24 0 -48 -9t-45 -25.5t-37.5 -39t-25.5 -49.5v-311h-110v523h100v-105q30 53 87 83.5t126 30.5q47 0 77 -17t47.5 -46.5t24.5 -68t7 -81.5v-319z" />
    <glyph glyph-name="Ncommaaccent" unicode="&#x145;" horiz-adv-x="767" 
d="M342 -213l23 77h-32v88h95v-88l-35 -77h-51zM192 500v-500h-112v710h88l406 -512v511h113v-709h-93z" />
    <glyph glyph-name="ncommaaccent" unicode="&#x146;" horiz-adv-x="597" 
d="M255 -213l23 77h-32v88h95v-88l-35 -77h-51zM535 0h-110v293q0 74 -23.5 107.5t-69.5 33.5q-24 0 -48 -9t-45 -25.5t-37.5 -39t-25.5 -49.5v-311h-110v523h100v-105q30 53 87 83.5t126 30.5q47 0 77 -17t47.5 -46.5t24.5 -68t7 -81.5v-319z" />
    <glyph glyph-name="Ncaron" unicode="&#x147;" horiz-adv-x="767" 
d="M299 915l85 -63l85 63l59 -28l-104 -95h-79l-104 95zM192 500v-500h-112v710h88l406 -512v511h113v-709h-93z" />
    <glyph glyph-name="ncaron" unicode="&#x148;" horiz-adv-x="597" 
d="M224 730l85 -63l85 63l59 -28l-104 -95h-79l-104 95zM535 0h-110v293q0 74 -23.5 107.5t-69.5 33.5q-24 0 -48 -9t-45 -25.5t-37.5 -39t-25.5 -49.5v-311h-110v523h100v-105q30 53 87 83.5t126 30.5q47 0 77 -17t47.5 -46.5t24.5 -68t7 -81.5v-319z" />
    <glyph glyph-name="napostrophe" unicode="&#x149;" horiz-adv-x="597" 
d="M54 598l-70 22l35 68l-4 42h130zM535 0h-110v293q0 74 -23.5 107.5t-69.5 33.5q-24 0 -48 -9t-45 -25.5t-37.5 -39t-25.5 -49.5v-311h-110v523h100v-105q30 53 87 83.5t126 30.5q47 0 77 -17t47.5 -46.5t24.5 -68t7 -81.5v-319z" />
    <glyph glyph-name="Eng" unicode="&#x14a;" horiz-adv-x="756" 
d="M192 498v-498h-112v710h86l397 -506v505h113v-724q0 -39 -14 -71.5t-38 -56t-55 -36t-65 -12.5q-35 0 -67.5 11t-58.5 34l49 74q13 -12 30 -17.5t34 -5.5q29 0 52 21.5t23 54.5v40z" />
    <glyph glyph-name="eng" unicode="&#x14b;" horiz-adv-x="596" 
d="M364 -191q-36 0 -68.5 11t-58.5 34l49 74q14 -12 31 -17.5t34 -5.5q29 0 51.5 21.5t22.5 54.5v312q0 74 -23.5 107.5t-69.5 33.5q-24 0 -48 -9t-45 -25.5t-37.5 -39t-25.5 -49.5v-311h-110v523h100v-105q30 53 87 83.5t126 30.5q47 0 77.5 -17t48 -46.5t24 -68t6.5 -81.5
v-330q0 -40 -14 -73t-37 -57t-54.5 -37t-65.5 -13z" />
    <glyph glyph-name="Omacron" unicode="&#x14c;" 
d="M231 830v70h296v-70h-296zM375 -5q-76 0 -138.5 30.5t-107.5 81t-69.5 115.5t-24.5 133q0 71 26 136t71.5 115t108 79.5t136.5 29.5q76 0 138.5 -31.5t107 -82.5t69 -115.5t24.5 -131.5q0 -71 -25.5 -136t-71.5 -114.5t-108.5 -79t-135.5 -29.5zM149 355q0 -50 16 -97
t45.5 -83t71.5 -57.5t94 -21.5q54 0 95.5 22.5t70.5 59.5t44 83t15 94q0 51 -16 97.5t-45.5 82t-71 57t-92.5 21.5q-54 0 -96 -22.5t-71 -58.5t-44.5 -82.5t-15.5 -94.5z" />
    <glyph glyph-name="omacron" unicode="&#x14d;" horiz-adv-x="602" 
d="M154 644v70h296v-70h-296zM301 -10q-62 0 -111.5 22t-84.5 59t-54 86.5t-19 103.5t19 103.5t54.5 86.5t85 59t110.5 22t110.5 -22t85 -59t54.5 -86.5t19 -103.5t-19 -103.5t-54.5 -86.5t-85 -59t-110.5 -22zM145 260q0 -38 12 -70t33 -55.5t49.5 -37t61.5 -13.5
t61.5 13.5t49.5 37.5t33 56t12 70q0 37 -12 69.5t-33 56.5t-49.5 37.5t-61.5 13.5q-32 0 -60.5 -14t-49.5 -38t-33.5 -56.5t-12.5 -69.5z" />
    <glyph glyph-name="Obreve" unicode="&#x14e;" 
d="M375 -5q-76 0 -138.5 30.5t-107.5 81t-69.5 115.5t-24.5 133q0 71 26 136t71.5 115t108 79.5t136.5 29.5q76 0 138.5 -31.5t107 -82.5t69 -115.5t24.5 -131.5q0 -71 -25.5 -136t-71.5 -114.5t-108.5 -79t-135.5 -29.5zM149 355q0 -50 16 -97t45.5 -83t71.5 -57.5
t94 -21.5q54 0 95.5 22.5t70.5 59.5t44 83t15 94q0 51 -16 97.5t-45.5 82t-71 57t-92.5 21.5q-54 0 -96 -22.5t-71 -58.5t-44.5 -82.5t-15.5 -94.5zM378 845q22 0 38.5 20t19.5 51h61q0 -26 -9 -48.5t-25 -39t-38 -25.5t-47 -9q-26 0 -47.5 9t-37.5 25.5t-25 39t-9 48.5h61
q0 -29 17.5 -50t40.5 -21z" />
    <glyph glyph-name="obreve" unicode="&#x14f;" horiz-adv-x="602" 
d="M301 -10q-62 0 -111.5 22t-84.5 59t-54 86.5t-19 103.5t19 103.5t54.5 86.5t85 59t110.5 22t110.5 -22t85 -59t54.5 -86.5t19 -103.5t-19 -103.5t-54.5 -86.5t-85 -59t-110.5 -22zM145 260q0 -38 12 -70t33 -55.5t49.5 -37t61.5 -13.5t61.5 13.5t49.5 37.5t33 56t12 70
q0 37 -12 69.5t-33 56.5t-49.5 37.5t-61.5 13.5q-32 0 -60.5 -14t-49.5 -38t-33.5 -56.5t-12.5 -69.5zM301 659q22 0 38.5 20t19.5 51h61q0 -26 -9 -48.5t-25 -39t-38 -25.5t-47 -9q-26 0 -47.5 9t-37.5 25.5t-25 39t-9 48.5h61q0 -29 17.5 -50t40.5 -21z" />
    <glyph glyph-name="Ohungarumlaut" unicode="&#x150;" 
d="M315 785l-55 22l51 110h89zM463 785l-56 22l51 110h90zM375 -5q-76 0 -138.5 30.5t-107.5 81t-69.5 115.5t-24.5 133q0 71 26 136t71.5 115t108 79.5t136.5 29.5q76 0 138.5 -31.5t107 -82.5t69 -115.5t24.5 -131.5q0 -71 -25.5 -136t-71.5 -114.5t-108.5 -79
t-135.5 -29.5zM149 355q0 -50 16 -97t45.5 -83t71.5 -57.5t94 -21.5q54 0 95.5 22.5t70.5 59.5t44 83t15 94q0 51 -16 97.5t-45.5 82t-71 57t-92.5 21.5q-54 0 -96 -22.5t-71 -58.5t-44.5 -82.5t-15.5 -94.5z" />
    <glyph glyph-name="ohungarumlaut" unicode="&#x151;" horiz-adv-x="602" 
d="M237 598l-55 22l51 110h89zM385 598l-56 22l51 110h90zM301 -10q-62 0 -111.5 22t-84.5 59t-54 86.5t-19 103.5t19 103.5t54.5 86.5t85 59t110.5 22t110.5 -22t85 -59t54.5 -86.5t19 -103.5t-19 -103.5t-54.5 -86.5t-85 -59t-110.5 -22zM145 260q0 -38 12 -70t33 -55.5
t49.5 -37t61.5 -13.5t61.5 13.5t49.5 37.5t33 56t12 70q0 37 -12 69.5t-33 56.5t-49.5 37.5t-61.5 13.5q-32 0 -60.5 -14t-49.5 -38t-33.5 -56.5t-12.5 -69.5z" />
    <glyph glyph-name="OE" unicode="&#x152;" horiz-adv-x="1109" 
d="M1074 99v-99h-477v132q-17 -29 -40.5 -54t-52.5 -43.5t-62.5 -29t-70.5 -10.5q-75 0 -137 30.5t-106 81t-68.5 115.5t-24.5 133q0 71 25.5 136t70.5 115t107 79.5t135 29.5q37 0 70.5 -10.5t62 -29t51.5 -43.5t40 -54v132h468v-99h-355v-200h301v-99h-301v-213h364z
M372 96q52 0 93 22.5t69.5 59t43.5 83.5t15 95q0 50 -16 96.5t-45 82.5t-70 57.5t-91 21.5q-52 0 -93.5 -22.5t-70 -59t-43.5 -83t-15 -94.5q0 -50 15.5 -97t44.5 -83t70.5 -57.5t92.5 -21.5z" />
    <glyph glyph-name="oe" unicode="&#x153;" horiz-adv-x="1020" 
d="M300 -10q-58 0 -107 20.5t-85 56.5t-56 85.5t-20 107.5t20.5 108t56.5 86.5t85 57t106 20.5q71 0 126 -36t87 -102q34 68 88.5 103t126.5 35q57 0 105 -19.5t83 -55t55.5 -85.5t23.5 -111v-19q0 -10 -2 -17h-419q3 -33 16.5 -61.5t35.5 -49.5t50.5 -33t61.5 -12
q23 0 45 6t40.5 17t32.5 26t21 33l91 -27q-29 -61 -92.5 -97.5t-141.5 -36.5q-68 0 -123.5 35.5t-97.5 98.5q-41 -66 -94 -100t-119 -34zM301 84q33 0 61.5 13.5t49.5 37t33 56t12 70.5q0 37 -12 69.5t-32.5 56.5t-49 37.5t-61.5 13.5t-62 -14t-50 -38t-33 -56.5t-12 -70.5
t12 -70t33 -55t49.5 -36.5t61.5 -13.5zM885 295q-3 34 -16.5 63t-35 49.5t-49.5 32t-59 11.5q-32 0 -59 -11.5t-47.5 -32.5t-33 -49.5t-14.5 -62.5h314z" />
    <glyph glyph-name="Racute" unicode="&#x154;" horiz-adv-x="661" 
d="M344 785l-72 22l57 110h105zM80 0v710h309q48 0 88.5 -20t69.5 -52.5t45.5 -74t16.5 -84.5q0 -36 -10 -69t-28 -61t-44 -48.5t-57 -30.5l167 -270h-127l-154 247h-164v-247h-112zM192 346h196q24 0 43.5 10.5t33.5 29t22 42.5t8 51t-9.5 51t-25 42t-36 28.5t-42.5 10.5
h-190v-265z" />
    <glyph glyph-name="racute" unicode="&#x155;" horiz-adv-x="374" 
d="M246 598l-72 22l57 110h105zM360 428q-64 -2 -113.5 -29.5t-70.5 -78.5v-320h-110v523h102v-117q27 54 70.5 86.5t93.5 35.5h17q6 0 11 -1v-99z" />
    <glyph glyph-name="Rcommaaccent" unicode="&#x156;" horiz-adv-x="661" 
d="M295 -213l23 77h-32v88h95v-88l-35 -77h-51zM80 0v710h309q48 0 88.5 -20t69.5 -52.5t45.5 -74t16.5 -84.5q0 -36 -10 -69t-28 -61t-44 -48.5t-57 -30.5l167 -270h-127l-154 247h-164v-247h-112zM192 346h196q24 0 43.5 10.5t33.5 29t22 42.5t8 51t-9.5 51t-25 42
t-36 28.5t-42.5 10.5h-190v-265z" />
    <glyph glyph-name="rcommaaccent" unicode="&#x157;" horiz-adv-x="374" 
d="M75 -213l23 77h-32v88h95v-88l-35 -77h-51zM360 428q-64 -2 -113.5 -29.5t-70.5 -78.5v-320h-110v523h102v-117q27 54 70.5 86.5t93.5 35.5h17q6 0 11 -1v-99z" />
    <glyph glyph-name="Rcaron" unicode="&#x158;" horiz-adv-x="661" 
d="M233 917l85 -63l85 63l59 -28l-104 -95h-79l-104 95zM80 0v710h309q48 0 88.5 -20t69.5 -52.5t45.5 -74t16.5 -84.5q0 -36 -10 -69t-28 -61t-44 -48.5t-57 -30.5l167 -270h-127l-154 247h-164v-247h-112zM192 346h196q24 0 43.5 10.5t33.5 29t22 42.5t8 51t-9.5 51
t-25 42t-36 28.5t-42.5 10.5h-190v-265z" />
    <glyph glyph-name="rcaron" unicode="&#x159;" horiz-adv-x="374" 
d="M136 730l85 -63l85 63l59 -28l-104 -95h-79l-104 95zM360 428q-64 -2 -113.5 -29.5t-70.5 -78.5v-320h-110v523h102v-117q27 54 70.5 86.5t93.5 35.5h17q6 0 11 -1v-99z" />
    <glyph glyph-name="Sacute" unicode="&#x15a;" horiz-adv-x="611" 
d="M343 795l-72 22l57 110h105zM500 543q-10 11 -29 23.5t-44.5 23.5t-56 18t-62.5 7q-71 0 -104.5 -26t-33.5 -72q0 -26 10.5 -42.5t32.5 -29t55 -22t77 -20.5q54 -13 97.5 -29t73.5 -39t46.5 -56.5t16.5 -81.5q0 -54 -20.5 -93t-56 -63.5t-82.5 -36t-101 -11.5
q-81 0 -156.5 24.5t-136.5 71.5l51 96q13 -13 37.5 -29t57 -29.5t70.5 -23t79 -9.5q66 0 102 23t36 68q0 27 -13.5 45t-38.5 31.5t-61 24.5t-82 23q-53 14 -92.5 29.5t-65.5 37.5t-39.5 51.5t-13.5 71.5q0 52 20 92.5t54.5 68t81.5 41.5t102 14q72 0 133 -23t107 -57z" />
    <glyph glyph-name="sacute" unicode="&#x15b;" horiz-adv-x="496" 
d="M271 598l-72 22l57 110h105zM256 -10q-63 0 -125.5 20.5t-107.5 58.5l44 70q47 -34 93 -51.5t94 -17.5q49 0 77.5 19t28.5 54q0 33 -32 48t-100 33q-49 13 -84 25t-57 28t-32 37t-10 51q0 40 15.5 71t43 52.5t64.5 32.5t80 11q59 0 110 -18t91 -52l-47 -66
q-73 58 -155 58q-42 0 -70.5 -17.5t-28.5 -55.5q0 -16 6 -27t19.5 -19t35 -14.5t53.5 -14.5q53 -13 91.5 -26t63.5 -30.5t37 -41t12 -56.5q0 -75 -56.5 -118.5t-153.5 -43.5z" />
    <glyph glyph-name="Scircumflex" unicode="&#x15c;" horiz-adv-x="611" 
d="M175 832l104 95h79l104 -95l-59 -28l-85 63l-85 -63zM500 543q-10 11 -29 23.5t-44.5 23.5t-56 18t-62.5 7q-71 0 -104.5 -26t-33.5 -72q0 -26 10.5 -42.5t32.5 -29t55 -22t77 -20.5q54 -13 97.5 -29t73.5 -39t46.5 -56.5t16.5 -81.5q0 -54 -20.5 -93t-56 -63.5
t-82.5 -36t-101 -11.5q-81 0 -156.5 24.5t-136.5 71.5l51 96q13 -13 37.5 -29t57 -29.5t70.5 -23t79 -9.5q66 0 102 23t36 68q0 27 -13.5 45t-38.5 31.5t-61 24.5t-82 23q-53 14 -92.5 29.5t-65.5 37.5t-39.5 51.5t-13.5 71.5q0 52 20 92.5t54.5 68t81.5 41.5t102 14
q72 0 133 -23t107 -57z" />
    <glyph glyph-name="scircumflex" unicode="&#x15d;" horiz-adv-x="496" 
d="M103 635l104 95h79l104 -95l-59 -28l-85 63l-85 -63zM256 -10q-63 0 -125.5 20.5t-107.5 58.5l44 70q47 -34 93 -51.5t94 -17.5q49 0 77.5 19t28.5 54q0 33 -32 48t-100 33q-49 13 -84 25t-57 28t-32 37t-10 51q0 40 15.5 71t43 52.5t64.5 32.5t80 11q59 0 110 -18
t91 -52l-47 -66q-73 58 -155 58q-42 0 -70.5 -17.5t-28.5 -55.5q0 -16 6 -27t19.5 -19t35 -14.5t53.5 -14.5q53 -13 91.5 -26t63.5 -30.5t37 -41t12 -56.5q0 -75 -56.5 -118.5t-153.5 -43.5z" />
    <glyph glyph-name="uni015E" unicode="&#x15e;" horiz-adv-x="611" 
d="M241 -126q12 -7 37 -13.5t51 -6.5t41.5 8t15.5 26q0 20 -14.5 27t-37.5 7q-21 0 -44 -4t-36 -8l44 84q-76 3 -145.5 27t-126.5 68l51 96q13 -13 37.5 -29t57 -29.5t70.5 -23t79 -9.5q66 0 102 23t36 68q0 27 -13.5 45t-38.5 31.5t-61 24.5t-82 23q-53 14 -92.5 29.5
t-65.5 37.5t-39.5 51.5t-13.5 71.5q0 52 20 92.5t54.5 68t81.5 41.5t102 14q72 0 133 -23t107 -57l-51 -92q-10 11 -29 23.5t-44.5 23.5t-56 18t-62.5 7q-71 0 -104.5 -26t-33.5 -72q0 -26 10.5 -42.5t32.5 -29t55 -22t77 -20.5q54 -13 97.5 -29t73.5 -39t46.5 -56.5
t16.5 -81.5q0 -51 -18 -87.5t-49 -61.5t-73 -38t-90 -16l-25 -39q8 2 17 3t17 1q35 0 58.5 -16t23.5 -51q0 -36 -29.5 -58.5t-89.5 -22.5q-32 0 -57.5 6t-45.5 14z" />
    <glyph glyph-name="uni015F" unicode="&#x15f;" horiz-adv-x="496" 
d="M178 -126q12 -7 37 -13.5t51 -6.5t41.5 8t15.5 26q0 20 -14.5 27t-37.5 7q-21 0 -44 -4t-36 -8l42 81q-58 4 -113.5 23.5t-96.5 54.5l44 70q47 -34 93 -51.5t94 -17.5q49 0 77.5 19t28.5 54q0 33 -32 48t-100 33q-49 13 -84 25t-57 28t-32 37t-10 51q0 40 15.5 71
t43 52.5t64.5 32.5t80 11q59 0 110 -18t91 -52l-47 -66q-73 58 -155 58q-42 0 -70.5 -17.5t-28.5 -55.5q0 -16 6 -27t19.5 -19t35 -14.5t53.5 -14.5q53 -13 91.5 -26t63.5 -30.5t37 -41t12 -56.5q0 -69 -48.5 -111.5t-133.5 -49.5l-23 -36q8 2 17 3t17 1q35 0 58.5 -16
t23.5 -51q0 -36 -29.5 -58.5t-89.5 -22.5q-32 0 -57.5 6t-45.5 14z" />
    <glyph glyph-name="Scaron" unicode="&#x160;" horiz-adv-x="611" 
d="M233 927l85 -63l85 63l59 -28l-104 -95h-79l-104 95zM500 543q-10 11 -29 23.5t-44.5 23.5t-56 18t-62.5 7q-71 0 -104.5 -26t-33.5 -72q0 -26 10.5 -42.5t32.5 -29t55 -22t77 -20.5q54 -13 97.5 -29t73.5 -39t46.5 -56.5t16.5 -81.5q0 -54 -20.5 -93t-56 -63.5
t-82.5 -36t-101 -11.5q-81 0 -156.5 24.5t-136.5 71.5l51 96q13 -13 37.5 -29t57 -29.5t70.5 -23t79 -9.5q66 0 102 23t36 68q0 27 -13.5 45t-38.5 31.5t-61 24.5t-82 23q-53 14 -92.5 29.5t-65.5 37.5t-39.5 51.5t-13.5 71.5q0 52 20 92.5t54.5 68t81.5 41.5t102 14
q72 0 133 -23t107 -57z" />
    <glyph glyph-name="scaron" unicode="&#x161;" horiz-adv-x="496" 
d="M161 730l85 -63l85 63l59 -28l-104 -95h-79l-104 95zM256 -10q-63 0 -125.5 20.5t-107.5 58.5l44 70q47 -34 93 -51.5t94 -17.5q49 0 77.5 19t28.5 54q0 33 -32 48t-100 33q-49 13 -84 25t-57 28t-32 37t-10 51q0 40 15.5 71t43 52.5t64.5 32.5t80 11q59 0 110 -18
t91 -52l-47 -66q-73 58 -155 58q-42 0 -70.5 -17.5t-28.5 -55.5q0 -16 6 -27t19.5 -19t35 -14.5t53.5 -14.5q53 -13 91.5 -26t63.5 -30.5t37 -41t12 -56.5q0 -75 -56.5 -118.5t-153.5 -43.5z" />
    <glyph glyph-name="uni0162" unicode="&#x162;" horiz-adv-x="615" 
d="M232 -126q12 -7 37 -13.5t51 -6.5t41.5 8t15.5 26q0 20 -14.5 27t-37.5 7q-21 0 -44 -4t-36 -8l47 90h-41v611h-237v99h586v-99h-236v-611h-20l-29 -45q8 2 17 3t17 1q35 0 58.5 -16t23.5 -51q0 -36 -29.5 -58.5t-89.5 -22.5q-32 0 -57.5 6t-45.5 14z" />
    <glyph glyph-name="uni0163" unicode="&#x163;" horiz-adv-x="367" 
d="M141 -126q12 -7 37 -13.5t51 -6.5t41.5 8t15.5 26q0 20 -14.5 27t-37.5 7q-21 0 -44 -4t-36 -8l44 83q-44 5 -74.5 33.5t-30.5 84.5v327h-69v85h69v172h110v-172h114v-85h-114v-292q2 -28 17.5 -40.5t38.5 -12.5t44 8t31 13l23 -87q-17 -8 -45.5 -18t-62.5 -15l-25 -39
q8 2 17 3t17 1q35 0 58.5 -16t23.5 -51q0 -36 -29.5 -58.5t-89.5 -22.5q-32 0 -57.5 6t-45.5 14z" />
    <glyph glyph-name="Tcaron" unicode="&#x164;" horiz-adv-x="616" 
d="M227 916l85 -63l85 63l59 -28l-104 -95h-79l-104 95zM601 611h-236v-611h-113v611h-237v99h586v-99z" />
    <glyph glyph-name="tcaron" unicode="&#x165;" horiz-adv-x="367" 
d="M329 598l-72 22l57 110h105zM357 27q-21 -10 -58 -22.5t-79 -12.5q-26 0 -49 7t-40.5 21t-27.5 36.5t-10 54.5v327h-69v85h69v172h110v-172h114v-85h-114v-292q2 -28 17.5 -40.5t38.5 -12.5t44 8t31 13z" />
    <glyph glyph-name="Tbar" unicode="&#x166;" horiz-adv-x="643" 
d="M614 611h-236v-223h201v-56h-201v-332h-113v332h-201v56h201v223h-237v99h586v-99z" />
    <glyph glyph-name="tbar" unicode="&#x167;" horiz-adv-x="368" 
d="M358 27q-21 -10 -58 -22.5t-79 -12.5q-26 0 -49 7t-40.5 21t-27.5 36.5t-10 54.5v169h-69v67h69v91h-69v85h69v172h110v-172h114v-85h-114v-91h114v-67h-114v-134q2 -28 17.5 -40.5t38.5 -12.5t44 8t31 13z" />
    <glyph glyph-name="Utilde" unicode="&#x168;" 
d="M376 96q56 0 93 22t59.5 57.5t32 81t9.5 93.5v360h113v-360q0 -73 -17 -137.5t-54 -113t-95.5 -76.5t-140.5 -28q-85 0 -143.5 29.5t-94.5 79t-52 113.5t-16 133v360h112v-360q0 -49 9.5 -94.5t32 -81t60 -57t92.5 -21.5zM439 801q-23 0 -40 6.5t-31.5 15t-28.5 15
t-30 6.5q-17 0 -26.5 -7t-14.5 -15.5t-6.5 -16.5t-1.5 -9h-62q0 8 5 27t17.5 38.5t33 34.5t51.5 15q22 0 38.5 -7t31 -15t29 -15t32.5 -7t29 7t16.5 16t7 16.5t1.5 9.5h63q0 -6 -5.5 -25t-18.5 -39t-35 -35.5t-55 -15.5z" />
    <glyph glyph-name="utilde" unicode="&#x169;" horiz-adv-x="609" 
d="M227 -10q-82 0 -124 53.5t-42 159.5v320h110v-298q0 -141 100 -141q47 0 89 29t65 84v326h110v-393q0 -19 6.5 -27t23.5 -9v-94q-17 -3 -28 -4t-21 -1q-30 0 -51 16.5t-22 42.5l-2 52q-35 -57 -91 -86.5t-123 -29.5zM361 615q-23 0 -40 6.5t-31.5 15t-28.5 15t-30 6.5
q-17 0 -26.5 -7t-14.5 -15.5t-6.5 -16.5t-1.5 -9h-62q0 8 5 27t17.5 38.5t33 34.5t51.5 15q22 0 38.5 -7t31 -15t29 -15t32.5 -7t29 7t16.5 16t7 16.5t1.5 9.5h63q0 -6 -5.5 -25t-18.5 -39t-35 -35.5t-55 -15.5z" />
    <glyph glyph-name="Umacron" unicode="&#x16a;" 
d="M376 96q56 0 93 22t59.5 57.5t32 81t9.5 93.5v360h113v-360q0 -73 -17 -137.5t-54 -113t-95.5 -76.5t-140.5 -28q-85 0 -143.5 29.5t-94.5 79t-52 113.5t-16 133v360h112v-360q0 -49 9.5 -94.5t32 -81t60 -57t92.5 -21.5zM229 830v70h296v-70h-296z" />
    <glyph glyph-name="umacron" unicode="&#x16b;" horiz-adv-x="609" 
d="M227 -10q-82 0 -124 53.5t-42 159.5v320h110v-298q0 -141 100 -141q47 0 89 29t65 84v326h110v-393q0 -19 6.5 -27t23.5 -9v-94q-17 -3 -28 -4t-21 -1q-30 0 -51 16.5t-22 42.5l-2 52q-35 -57 -91 -86.5t-123 -29.5zM150 644v70h296v-70h-296z" />
    <glyph glyph-name="Ubreve" unicode="&#x16c;" 
d="M376 96q56 0 93 22t59.5 57.5t32 81t9.5 93.5v360h113v-360q0 -73 -17 -137.5t-54 -113t-95.5 -76.5t-140.5 -28q-85 0 -143.5 29.5t-94.5 79t-52 113.5t-16 133v360h112v-360q0 -49 9.5 -94.5t32 -81t60 -57t92.5 -21.5zM377 845q22 0 38.5 20t19.5 51h61
q0 -26 -9 -48.5t-25 -39t-38 -25.5t-47 -9q-26 0 -47.5 9t-37.5 25.5t-25 39t-9 48.5h61q0 -29 17.5 -50t40.5 -21z" />
    <glyph glyph-name="ubreve" unicode="&#x16d;" horiz-adv-x="609" 
d="M227 -10q-82 0 -124 53.5t-42 159.5v320h110v-298q0 -141 100 -141q47 0 89 29t65 84v326h110v-393q0 -19 6.5 -27t23.5 -9v-94q-17 -3 -28 -4t-21 -1q-30 0 -51 16.5t-22 42.5l-2 52q-35 -57 -91 -86.5t-123 -29.5zM297 659q22 0 38.5 20t19.5 51h61q0 -26 -9 -48.5
t-25 -39t-38 -25.5t-47 -9q-26 0 -47.5 9t-37.5 25.5t-25 39t-9 48.5h61q0 -29 17.5 -50t40.5 -21z" />
    <glyph glyph-name="Uring" unicode="&#x16e;" 
d="M287 843q0 35 24.5 54t63.5 19q40 0 64.5 -19t24.5 -54q0 -34 -24.5 -53.5t-64.5 -19.5q-39 0 -63.5 19.5t-24.5 53.5zM375 880q-17 0 -28.5 -10t-11.5 -27q0 -15 11.5 -26t28.5 -11t29 10.5t12 26.5q0 17 -12 27t-29 10zM376 96q56 0 93 22t59.5 57.5t32 81t9.5 93.5
v360h113v-360q0 -73 -17 -137.5t-54 -113t-95.5 -76.5t-140.5 -28q-85 0 -143.5 29.5t-94.5 79t-52 113.5t-16 133v360h112v-360q0 -49 9.5 -94.5t32 -81t60 -57t92.5 -21.5z" />
    <glyph glyph-name="uring" unicode="&#x16f;" horiz-adv-x="609" 
d="M209 657q0 35 24.5 54t63.5 19q40 0 64.5 -19t24.5 -54q0 -34 -24.5 -53.5t-64.5 -19.5q-39 0 -63.5 19.5t-24.5 53.5zM297 694q-17 0 -28.5 -10t-11.5 -27q0 -15 11.5 -26t28.5 -11t29 10.5t12 26.5q0 17 -12 27t-29 10zM227 -10q-82 0 -124 53.5t-42 159.5v320h110
v-298q0 -141 100 -141q47 0 89 29t65 84v326h110v-393q0 -19 6.5 -27t23.5 -9v-94q-17 -3 -28 -4t-21 -1q-30 0 -51 16.5t-22 42.5l-2 52q-35 -57 -91 -86.5t-123 -29.5z" />
    <glyph glyph-name="Uhungarumlaut" unicode="&#x170;" 
d="M376 96q56 0 93 22t59.5 57.5t32 81t9.5 93.5v360h113v-360q0 -73 -17 -137.5t-54 -113t-95.5 -76.5t-140.5 -28q-85 0 -143.5 29.5t-94.5 79t-52 113.5t-16 133v360h112v-360q0 -49 9.5 -94.5t32 -81t60 -57t92.5 -21.5zM312 785l-55 22l51 110h89zM460 785l-56 22
l51 110h90z" />
    <glyph glyph-name="uhungarumlaut" unicode="&#x171;" horiz-adv-x="609" 
d="M227 -10q-82 0 -124 53.5t-42 159.5v320h110v-298q0 -141 100 -141q47 0 89 29t65 84v326h110v-393q0 -19 6.5 -27t23.5 -9v-94q-17 -3 -28 -4t-21 -1q-30 0 -51 16.5t-22 42.5l-2 52q-35 -57 -91 -86.5t-123 -29.5zM234 598l-55 22l51 110h89zM382 598l-56 22l51 110h90
z" />
    <glyph glyph-name="Uogonek" unicode="&#x172;" 
d="M376 96q56 0 93 22t59.5 57.5t32 81t9.5 93.5v360h113v-360q0 -70 -16 -132t-49.5 -110t-86.5 -77.5t-128 -34.5q-40 -25 -58 -45.5t-18 -41.5q0 -37 58 -41l-25 -58q-49 8 -74 30.5t-25 51.5q0 53 77 105q-74 7 -125 38.5t-83 79.5t-46 109t-14 126v360h112v-360
q0 -49 9.5 -94.5t32 -81t60 -57t92.5 -21.5z" />
    <glyph glyph-name="uogonek" unicode="&#x173;" horiz-adv-x="609" 
d="M227 -10q-82 0 -124 53.5t-42 159.5v320h110v-298q0 -141 100 -141q47 0 89 29t65 84v326h110v-393q0 -19 6.5 -27t23.5 -9v-94q-42 -26 -61 -47t-19 -42q0 -37 58 -41l-25 -58q-49 8 -74 30.5t-25 51.5q0 53 75 104q-22 5 -36 19.5t-15 36.5l-2 52q-35 -57 -91 -86.5
t-123 -29.5z" />
    <glyph glyph-name="Wcircumflex" unicode="&#x174;" horiz-adv-x="1051" 
d="M381 821l104 95h79l104 -95l-59 -28l-85 63l-85 -63zM332 707h106l87 -241l88 241h105l-121 -316l106 -261l221 580h123l-293 -710h-96l-132 318l-133 -318h-96l-293 710h122l222 -580l106 261z" />
    <glyph glyph-name="wcircumflex" unicode="&#x175;" horiz-adv-x="830" 
d="M271 635l104 95h79l104 -95l-59 -28l-85 63l-85 -63zM718 523h105l-220 -523h-91l-97 243l-97 -243h-91l-221 523h105l169 -417l76 194l-91 222h90l60 -164l59 164h90l-90 -222l76 -194z" />
    <glyph glyph-name="Ycircumflex" unicode="&#x176;" horiz-adv-x="657" 
d="M132 710l196 -356l198 356h123l-265 -456v-254h-112v256l-263 454h123zM185 821l104 95h79l104 -95l-59 -28l-85 63l-85 -63z" />
    <glyph glyph-name="ycircumflex" unicode="&#x177;" horiz-adv-x="547" 
d="M84 -123q15 -3 29.5 -5t23.5 -2q13 0 22.5 5.5t19.5 19.5t20.5 39.5t24.5 65.5l-215 523h113l162 -426l144 426h104l-237 -644q-16 -45 -55.5 -75.5t-101.5 -30.5q-12 0 -25 1.5t-29 6.5v96zM140 635l104 95h79l104 -95l-59 -28l-85 63l-85 -63z" />
    <glyph glyph-name="Ydieresis" unicode="&#x178;" horiz-adv-x="657" 
d="M132 710l196 -356l198 356h123l-265 -456v-254h-112v256l-263 454h123zM194 802v110h92v-110h-92zM371 802v110h92v-110h-92z" />
    <glyph glyph-name="Zacute" unicode="&#x179;" horiz-adv-x="629" 
d="M353 784l-72 22l57 110h105zM31 86l431 525h-421v99h552v-86l-421 -525h422v-99h-563v86z" />
    <glyph glyph-name="zacute" unicode="&#x17a;" horiz-adv-x="493" 
d="M277 598l-72 22l57 110h105zM28 69l314 376h-303v78h419v-69l-312 -376h315v-78h-433v69z" />
    <glyph glyph-name="Zdotaccent" unicode="&#x17b;" horiz-adv-x="629" 
d="M31 86l431 525h-421v99h552v-86l-421 -525h422v-99h-563v86zM279 801v115h99v-115h-99z" />
    <glyph glyph-name="zdotaccent" unicode="&#x17c;" horiz-adv-x="493" 
d="M28 69l314 376h-303v78h419v-69l-312 -376h315v-78h-433v69zM202 615v115h99v-115h-99z" />
    <glyph glyph-name="Zcaron" unicode="&#x17d;" horiz-adv-x="629" 
d="M243 916l85 -63l85 63l59 -28l-104 -95h-79l-104 95zM31 86l431 525h-421v99h552v-86l-421 -525h422v-99h-563v86z" />
    <glyph glyph-name="zcaron" unicode="&#x17e;" horiz-adv-x="493" 
d="M166 730l85 -63l85 63l59 -28l-104 -95h-79l-104 95zM28 69l314 376h-303v78h419v-69l-312 -376h315v-78h-433v69z" />
    <glyph glyph-name="Schwa" unicode="&#x18f;" horiz-adv-x="741" 
d="M366 -5q-74 0 -136.5 29t-108.5 77.5t-71.5 112.5t-25.5 133q0 14 0.5 27.5t2.5 21.5h554q-5 48 -24 88t-48.5 68.5t-66.5 44.5t-79 16q-32 0 -61.5 -9t-54.5 -25t-43 -38.5t-27 -49.5l-110 43q19 40 50.5 73.5t71 57.5t85.5 37t95 13q72 0 133.5 -29t106.5 -78.5
t70.5 -114.5t25.5 -137q0 -74 -25.5 -139.5t-70.5 -114.5t-107 -78t-136 -29zM369 95q43 0 80 15.5t65.5 43.5t46 66.5t21.5 83.5h-436q3 -45 22 -83t49 -66t69 -44t83 -16z" />
    <glyph glyph-name="florin" unicode="&#x192;" horiz-adv-x="541" 
d="M156 -191q-35 0 -67.5 11t-58.5 34l49 74q13 -12 30 -17.5t34 -5.5q29 0 51.5 21.5t22.5 54.5v396h-69v85h69v69q0 48 12 86.5t33.5 66t52.5 42t69 14.5q32 0 63.5 -8.5t58.5 -23.5l-24 -82q-15 9 -35 15t-40 6q-39 0 -59.5 -29t-20.5 -84v-72h134v-85h-134v-393
q0 -39 -14 -71t-37.5 -55t-54.5 -36t-65 -13z" />
    <glyph glyph-name="uni01C4" unicode="&#x1c4;" horiz-adv-x="1345" 
d="M959 916l85 -63l85 63l59 -28l-104 -95h-79l-104 95zM747 86l431 525h-421v99h552v-86l-421 -525h422v-99h-563v86zM80 0v710h252q86 0 150.5 -28t108 -76t65.5 -112.5t22 -137.5q0 -81 -24.5 -146.5t-69.5 -112t-109 -72t-143 -25.5h-252zM564 356q0 56 -15.5 103
t-45.5 80.5t-73 52.5t-98 19h-140v-512h140q56 0 99.5 19.5t73 54t44.5 81.5t15 102z" />
    <glyph glyph-name="uni01C5" unicode="&#x1c5;" horiz-adv-x="1209" 
d="M882 730l85 -63l85 63l59 -28l-104 -95h-79l-104 95zM744 69l314 376h-303v78h419v-69l-312 -376h315v-78h-433v69zM80 0v710h252q86 0 150.5 -28t108 -76t65.5 -112.5t22 -137.5q0 -81 -24.5 -146.5t-69.5 -112t-109 -72t-143 -25.5h-252zM564 356q0 56 -15.5 103
t-45.5 80.5t-73 52.5t-98 19h-140v-512h140q56 0 99.5 19.5t73 54t44.5 81.5t15 102z" />
    <glyph glyph-name="uni01C6" unicode="&#x1c6;" horiz-adv-x="1130" 
d="M803 730l85 -63l85 63l59 -28l-104 -95h-79l-104 95zM665 69l314 376h-303v78h419v-69l-312 -376h315v-78h-433v69zM279 -10q-53 0 -98 21.5t-78 58.5t-51.5 86.5t-18.5 106.5q0 55 17.5 103.5t49 85.5t74 58.5t93.5 21.5q63 0 111 -30.5t75 -77.5v306h110v-600
q0 -19 6.5 -27t23.5 -9v-94q-17 -3 -27.5 -4t-17.5 -1q-33 0 -54 17t-23 44l-2 39q-29 -49 -79 -77t-111 -28zM306 84q24 0 48 8t44 22t34.5 33t20.5 41v137q-9 25 -25.5 46t-37.5 36t-44.5 23t-47.5 8q-33 0 -60.5 -15t-47.5 -40t-31.5 -57t-11.5 -66q0 -36 12.5 -68
t34.5 -56t50.5 -38t61.5 -14z" />
    <glyph glyph-name="uni01C7" unicode="&#x1c7;" horiz-adv-x="1072" 
d="M621 125q17 -12 50.5 -23.5t76.5 -11.5q46 0 73.5 16.5t42 49t19 81t4.5 112.5v361h113v-361q0 -81 -8 -147.5t-34 -113.5t-76 -73t-134 -26q-90 0 -154 44zM80 0v710h112v-611h381v-99h-493z" />
    <glyph glyph-name="uni01C8" unicode="&#x1c8;" horiz-adv-x="833" 
d="M595 -191q-36 0 -68 11t-58 34l49 74q13 -12 30 -17.5t34 -5.5q29 0 51.5 21.5t22.5 54.5v542h110v-534q0 -40 -13.5 -73t-37 -57t-54.5 -37t-66 -13zM656 609v121h110v-121h-110zM80 0v710h112v-611h381v-99h-493z" />
    <glyph glyph-name="uni01C9" unicode="&#x1c9;" horiz-adv-x="549" 
d="M312 -191q-36 0 -68 11t-58 34l49 74q13 -12 30 -17.5t34 -5.5q29 0 51.5 21.5t22.5 54.5v542h110v-534q0 -40 -13.5 -73t-37 -57t-54.5 -37t-66 -13zM373 609v121h110v-121h-110zM67 730h110v-579q0 -29 15 -45.5t42 -16.5q11 0 25.5 4t27.5 9l16 -86q-24 -11 -57 -17.5
t-59 -6.5q-57 0 -88.5 31t-31.5 88v619z" />
    <glyph glyph-name="uni01CA" unicode="&#x1ca;" horiz-adv-x="1254" 
d="M804 125q17 -12 50.5 -23.5t76.5 -11.5q46 0 73.5 16.5t42 49t19 81t4.5 112.5v361h113v-361q0 -81 -8 -147.5t-34 -113.5t-76 -73t-134 -26q-90 0 -154 44zM192 500v-500h-112v710h88l406 -512v511h113v-709h-93z" />
    <glyph glyph-name="uni01CB" unicode="&#x1cb;" horiz-adv-x="1015" 
d="M778 -191q-36 0 -68 11t-58 34l49 74q13 -12 30 -17.5t34 -5.5q29 0 51.5 21.5t22.5 54.5v542h110v-534q0 -40 -13.5 -73t-37 -57t-54.5 -37t-66 -13zM839 609v121h110v-121h-110zM192 500v-500h-112v710h88l406 -512v511h113v-709h-93z" />
    <glyph glyph-name="uni01CC" unicode="&#x1cc;" horiz-adv-x="845" 
d="M608 -191q-36 0 -68 11t-58 34l49 74q13 -12 30 -17.5t34 -5.5q29 0 51.5 21.5t22.5 54.5v542h110v-534q0 -40 -13.5 -73t-37 -57t-54.5 -37t-66 -13zM669 609v121h110v-121h-110zM535 0h-110v293q0 74 -23.5 107.5t-69.5 33.5q-24 0 -48 -9t-45 -25.5t-37.5 -39
t-25.5 -49.5v-311h-110v523h100v-105q30 53 87 83.5t126 30.5q47 0 77 -17t47.5 -46.5t24.5 -68t7 -81.5v-319z" />
    <glyph glyph-name="Oogonek" unicode="&#x1ea;" 
d="M357 -190q-49 8 -74 30.5t-25 51.5q0 54 78 106q-68 7 -123.5 40t-95 82t-61 110t-21.5 125q0 71 26 136t71.5 115t108 79.5t136.5 29.5q76 0 138.5 -31.5t107 -82.5t69 -115.5t24.5 -131.5q0 -68 -23.5 -130t-65.5 -111t-99.5 -80t-126.5 -36q-41 -26 -59 -46.5
t-18 -41.5q0 -37 58 -41zM149 355q0 -50 16 -97t45.5 -83t71.5 -57.5t94 -21.5q54 0 95.5 22.5t70.5 59.5t44 83t15 94q0 51 -16 97.5t-45.5 82t-71 57t-92.5 21.5q-54 0 -96 -22.5t-71 -58.5t-44.5 -82.5t-15.5 -94.5z" />
    <glyph glyph-name="oogonek" unicode="&#x1eb;" horiz-adv-x="602" 
d="M311 -192q-49 8 -74 30.5t-25 51.5q0 51 71 101q-58 3 -104.5 26t-79 60t-50 84t-17.5 100q0 54 19 103.5t54.5 86.5t85 59t110.5 22t110.5 -22t85 -59t54.5 -86.5t19 -103.5q0 -48 -15 -92t-43 -79.5t-67.5 -60.5t-88.5 -34q-42 -25 -60 -46t-18 -42q0 -37 58 -41z
M145 260q0 -38 12 -70t33 -55.5t49.5 -37t61.5 -13.5t61.5 13.5t49.5 37.5t33 56t12 70q0 37 -12 69.5t-33 56.5t-49.5 37.5t-61.5 13.5q-32 0 -60.5 -14t-49.5 -38t-33.5 -56.5t-12.5 -69.5z" />
    <glyph glyph-name="uni01F1" unicode="&#x1f1;" horiz-adv-x="1333" 
d="M735 86l431 525h-421v99h552v-86l-421 -525h422v-99h-563v86zM80 0v710h252q86 0 150.5 -28t108 -76t65.5 -112.5t22 -137.5q0 -81 -24.5 -146.5t-69.5 -112t-109 -72t-143 -25.5h-252zM564 356q0 56 -15.5 103t-45.5 80.5t-73 52.5t-98 19h-140v-512h140q56 0 99.5 19.5
t73 54t44.5 81.5t15 102z" />
    <glyph glyph-name="uni01F2" unicode="&#x1f2;" horiz-adv-x="1208" 
d="M743 69l314 376h-303v78h419v-69l-312 -376h315v-78h-433v69zM80 0v710h252q86 0 150.5 -28t108 -76t65.5 -112.5t22 -137.5q0 -81 -24.5 -146.5t-69.5 -112t-109 -72t-143 -25.5h-252zM564 356q0 56 -15.5 103t-45.5 80.5t-73 52.5t-98 19h-140v-512h140q56 0 99.5 19.5
t73 54t44.5 81.5t15 102z" />
    <glyph glyph-name="uni01F3" unicode="&#x1f3;" horiz-adv-x="1130" 
d="M665 69l314 376h-303v78h419v-69l-312 -376h315v-78h-433v69zM279 -10q-53 0 -98 21.5t-78 58.5t-51.5 86.5t-18.5 106.5q0 55 17.5 103.5t49 85.5t74 58.5t93.5 21.5q63 0 111 -30.5t75 -77.5v306h110v-600q0 -19 6.5 -27t23.5 -9v-94q-17 -3 -27.5 -4t-17.5 -1
q-33 0 -54 17t-23 44l-2 39q-29 -49 -79 -77t-111 -28zM306 84q24 0 48 8t44 22t34.5 33t20.5 41v137q-9 25 -25.5 46t-37.5 36t-44.5 23t-47.5 8q-33 0 -60.5 -15t-47.5 -40t-31.5 -57t-11.5 -66q0 -36 12.5 -68t34.5 -56t50.5 -38t61.5 -14z" />
    <glyph glyph-name="Gacute" unicode="&#x1f4;" horiz-adv-x="719" 
d="M403 784l-72 22l57 110h105zM577 88q-90 -93 -207 -93q-71 0 -132 29.5t-106 79.5t-70.5 116t-25.5 138t25.5 137t70.5 114t107 77.5t135 28.5q102 0 171 -42.5t104 -112.5l-86 -62q-29 58 -80 87t-112 29q-50 0 -91 -21.5t-70 -57t-44.5 -82.5t-15.5 -98
q0 -54 17.5 -101t48 -82t72.5 -55.5t91 -20.5q54 0 103.5 25t94.5 79v76h-149v83h243v-359h-94v88z" />
    <glyph glyph-name="gacute" unicode="&#x1f5;" horiz-adv-x="628" 
d="M336 598l-72 22l57 110h105zM272 -5q-53 0 -97 21.5t-75.5 58.5t-49 85t-17.5 101q0 56 18 105.5t50 86t76.5 58t98.5 21.5q63 0 110.5 -30t78.5 -78v99h97v-508q0 -57 -21 -101t-58.5 -74.5t-88.5 -46.5t-110 -16q-87 0 -144.5 29.5t-96.5 82.5l62 58q30 -42 77.5 -64
t101.5 -22q34 0 64.5 9t53.5 28t36.5 48t13.5 69v80q-28 -48 -77 -74t-103 -26zM308 84q25 0 48 8.5t42.5 23t33.5 33t20 39.5v137q-10 25 -26 45.5t-36.5 35.5t-43.5 23.5t-46 8.5q-36 0 -64.5 -15.5t-48.5 -41t-31 -57.5t-11 -66q0 -36 12.5 -67.5t34.5 -55t51.5 -37.5
t64.5 -14z" />
    <glyph glyph-name="Aringacute" unicode="&#x1fa;" horiz-adv-x="675" 
d="M385 810q19 -8 30 -24t11 -39q0 -20 -8.5 -34.5t-22.5 -23.5l272 -689h-118l-75 193h-274l-74 -193h-119l273 688q-14 10 -22.5 24.5t-8.5 34.5q0 27 15.5 44.5t41.5 24.5l53 102h105zM452 276l-114 305l-118 -305h232zM337 784q-17 0 -28.5 -10t-11.5 -27
q0 -15 11.5 -26t28.5 -11t29 10.5t12 26.5q0 17 -12 27t-29 10z" />
    <glyph glyph-name="aringacute" unicode="&#x1fb;" horiz-adv-x="564" 
d="M205 -10q-38 0 -70.5 12.5t-56 34.5t-37 52t-13.5 65q0 37 16 67t45.5 52t70 34t89.5 12q37 0 73 -6.5t65 -17.5v36q0 58 -33 90.5t-95 32.5q-42 0 -82.5 -15.5t-83.5 -44.5l-34 70q101 68 210 68q108 0 168 -55t60 -158v-189q0 -35 29 -36v-94q-16 -3 -27.5 -4t-22.5 -1
q-32 0 -49.5 16t-21.5 41l-3 33q-35 -46 -86.5 -70.5t-110.5 -24.5zM235 71q40 0 75.5 14.5t55.5 40.5q21 18 21 38v69q-28 11 -59.5 17t-61.5 6q-59 0 -96.5 -25.5t-37.5 -67.5q0 -39 29 -65.5t74 -26.5zM294 761l-72 22l57 110h105zM180 657q0 35 24.5 54t63.5 19
q40 0 64.5 -19t24.5 -54q0 -34 -24.5 -53.5t-64.5 -19.5q-39 0 -63.5 19.5t-24.5 53.5zM268 694q-17 0 -28.5 -10t-11.5 -27q0 -15 11.5 -26t28.5 -11t29 10.5t12 26.5q0 17 -12 27t-29 10z" />
    <glyph glyph-name="AEacute" unicode="&#x1fc;" horiz-adv-x="963" 
d="M577 784l-72 22l57 110h105zM423 710h496v-99h-354v-200h300v-99h-300v-213h363v-99h-475v193h-239l-118 -193h-121zM445 293v288l-182 -288h182z" />
    <glyph glyph-name="aeacute" unicode="&#x1fd;" horiz-adv-x="935" 
d="M474 598l-72 22l57 110h105zM204 -10q-38 0 -70 12.5t-55.5 34.5t-37 52t-13.5 65q0 37 16 67t45 52t69.5 34t89.5 12q33 0 65.5 -5t58.5 -15q2 13 4 29t7 27q-6 48 -37.5 73.5t-87.5 25.5q-41 0 -81.5 -15.5t-83.5 -44.5l-35 70q103 68 210 68q63 0 109.5 -22t72.5 -63
q33 38 82 61.5t109 23.5q61 0 111 -21.5t85 -58.5t54.5 -86.5t19.5 -104.5q0 -8 -0.5 -18.5t-2.5 -17.5h-427q3 -35 17 -63t36.5 -48.5t51.5 -31.5t61 -11q22 0 43.5 5.5t39.5 16t32 25.5t22 33l94 -27q-13 -29 -36 -53.5t-53.5 -42.5t-67.5 -28t-78 -10q-72 0 -129 30
t-92 81q-17 -30 -43 -51t-55.5 -34.5t-60.5 -19.5t-59 -6zM234 71q41 0 76.5 14.5t55.5 40.5q19 16 21 35q-7 13 -10.5 37.5t-4.5 39.5q-25 8 -52.5 13t-53.5 5q-60 0 -97.5 -25.5t-37.5 -67.5q0 -20 8 -36.5t22 -29t32.5 -19.5t40.5 -7zM801 295q-3 34 -16.5 63t-34.5 49.5
t-49.5 32t-61.5 11.5t-61.5 -11.5t-49.5 -32.5t-34 -49.5t-15 -62.5h322z" />
    <glyph glyph-name="Oslashacute" unicode="&#x1fe;" horiz-adv-x="751" 
d="M680 710l-67 -98q49 -52 76 -120t27 -138q0 -71 -25.5 -136t-71.5 -114.5t-108.5 -79t-135.5 -29.5q-45 0 -84 10.5t-74 29.5l-24 -35h-122l66 97q-49 51 -75.5 118.5t-26.5 139.5q0 71 26 136t71.5 115t108 79.5t136.5 29.5q44 0 83 -10.5t73 -30.5l25 36h122zM149 355
q0 -46 13 -89t38 -78l274 400q-45 25 -98 25q-54 0 -96 -22.5t-71 -58.5t-44.5 -82.5t-15.5 -94.5zM601 355q0 46 -13 88.5t-38 77.5l-274 -401q22 -11 47 -17.5t53 -6.5q54 0 95.5 22.5t70.5 59.5t44 83t15 94zM401 784l-72 22l57 110h105z" />
    <glyph glyph-name="oslashacute" unicode="&#x1ff;" horiz-adv-x="602" 
d="M66 -3l51 62q-42 38 -63.5 90t-21.5 112q0 54 19 103.5t54.5 86.5t85 59t110.5 22q41 0 76 -10t65 -28l25 32h66l-51 -62q42 -38 65 -90.5t23 -112.5q0 -54 -19 -103.5t-54.5 -86.5t-85 -59t-110.5 -22q-83 0 -145 39l-26 -32h-64zM301 84q33 0 61.5 13.5t49.5 37.5
t33 56t12 70q0 35 -11 66t-30 55l-198 -272q37 -26 83 -26zM145 260q0 -35 10.5 -66t29.5 -54l196 273q-38 25 -80 25q-32 0 -60.5 -14t-49.5 -38t-33.5 -56.5t-12.5 -69.5zM325 598l-72 22l57 110h105z" />
    <glyph glyph-name="Adblgrave" unicode="&#x200;" horiz-adv-x="675" 
d="M289 710h98l280 -710h-118l-75 193h-274l-74 -193h-119zM452 276l-114 305l-118 -305h232zM311 917h89l51 -110l-55 -22zM163 917h90l51 -110l-56 -22z" />
    <glyph glyph-name="adblgrave" unicode="&#x201;" horiz-adv-x="564" 
d="M205 -10q-38 0 -70.5 12.5t-56 34.5t-37 52t-13.5 65q0 37 16 67t45.5 52t70 34t89.5 12q37 0 73 -6.5t65 -17.5v36q0 58 -33 90.5t-95 32.5q-42 0 -82.5 -15.5t-83.5 -44.5l-34 70q101 68 210 68q108 0 168 -55t60 -158v-189q0 -35 29 -36v-94q-16 -3 -27.5 -4t-22.5 -1
q-32 0 -49.5 16t-21.5 41l-3 33q-35 -46 -86.5 -70.5t-110.5 -24.5zM235 71q40 0 75.5 14.5t55.5 40.5q21 18 21 38v69q-28 11 -59.5 17t-61.5 6q-59 0 -96.5 -25.5t-37.5 -67.5q0 -39 29 -65.5t74 -26.5zM258 730h89l51 -110l-55 -22zM110 730h90l51 -110l-56 -22z" />
    <glyph glyph-name="Ainvertedbreve" unicode="&#x202;" horiz-adv-x="675" 
d="M289 710h98l280 -710h-118l-75 193h-274l-74 -193h-119zM452 276l-114 305l-118 -305h232zM338 865q-23 0 -40.5 -21t-17.5 -50h-61q0 26 9 48.5t25 39t37.5 25.5t47.5 9q25 0 47 -9t38 -25.5t25 -39t9 -48.5h-61q-3 31 -19.5 51t-38.5 20z" />
    <glyph glyph-name="ainvertedbreve" unicode="&#x203;" horiz-adv-x="564" 
d="M205 -10q-38 0 -70.5 12.5t-56 34.5t-37 52t-13.5 65q0 37 16 67t45.5 52t70 34t89.5 12q37 0 73 -6.5t65 -17.5v36q0 58 -33 90.5t-95 32.5q-42 0 -82.5 -15.5t-83.5 -44.5l-34 70q101 68 210 68q108 0 168 -55t60 -158v-189q0 -35 29 -36v-94q-16 -3 -27.5 -4t-22.5 -1
q-32 0 -49.5 16t-21.5 41l-3 33q-35 -46 -86.5 -70.5t-110.5 -24.5zM235 71q40 0 75.5 14.5t55.5 40.5q21 18 21 38v69q-28 11 -59.5 17t-61.5 6q-59 0 -96.5 -25.5t-37.5 -67.5q0 -39 29 -65.5t74 -26.5zM278 679q-23 0 -40.5 -21t-17.5 -50h-61q0 26 9 48.5t25 39
t37.5 25.5t47.5 9q25 0 47 -9t38 -25.5t25 -39t9 -48.5h-61q-3 31 -19.5 51t-38.5 20z" />
    <glyph glyph-name="Edblgrave" unicode="&#x204;" horiz-adv-x="603" 
d="M303 917h89l51 -110l-55 -22zM155 917h90l51 -110l-56 -22zM567 99v-99h-487v710h478v-99h-366v-202h317v-93h-317v-217h375z" />
    <glyph glyph-name="edblgrave" unicode="&#x205;" horiz-adv-x="595" 
d="M282 730h89l51 -110l-55 -22zM134 730h90l51 -110l-56 -22zM303 -10q-61 0 -111 21.5t-85.5 58.5t-55 86t-19.5 104t19.5 104.5t55 87t85.5 59t112 21.5q61 0 110.5 -22t84.5 -58.5t53.5 -85t18.5 -101.5q0 -12 -1 -22.5t-2 -17.5h-419q3 -35 16.5 -63t35 -48.5t49 -31.5
t57.5 -11q22 0 43.5 5.5t39.5 16t32 25.5t22 33l94 -27q-27 -59 -89.5 -96.5t-145.5 -37.5zM462 301q-3 33 -16.5 61t-34.5 47.5t-49 30.5t-59 11t-58.5 -11t-48.5 -30.5t-34 -47.5t-16 -61h316z" />
    <glyph glyph-name="Einvertedbreve" unicode="&#x206;" horiz-adv-x="603" 
d="M329 865q-23 0 -40.5 -21t-17.5 -50h-61q0 26 9 48.5t25 39t37.5 25.5t47.5 9q25 0 47 -9t38 -25.5t25 -39t9 -48.5h-61q-3 31 -19.5 51t-38.5 20zM567 99v-99h-487v710h478v-99h-366v-202h317v-93h-317v-217h375z" />
    <glyph glyph-name="einvertedbreve" unicode="&#x207;" horiz-adv-x="595" 
d="M305 679q-23 0 -40.5 -21t-17.5 -50h-61q0 26 9 48.5t25 39t37.5 25.5t47.5 9q25 0 47 -9t38 -25.5t25 -39t9 -48.5h-61q-3 31 -19.5 51t-38.5 20zM303 -10q-61 0 -111 21.5t-85.5 58.5t-55 86t-19.5 104t19.5 104.5t55 87t85.5 59t112 21.5q61 0 110.5 -22t84.5 -58.5
t53.5 -85t18.5 -101.5q0 -12 -1 -22.5t-2 -17.5h-419q3 -35 16.5 -63t35 -48.5t49 -31.5t57.5 -11q22 0 43.5 5.5t39.5 16t32 25.5t22 33l94 -27q-27 -59 -89.5 -96.5t-145.5 -37.5zM462 301q-3 33 -16.5 61t-34.5 47.5t-49 30.5t-59 11t-58.5 -11t-48.5 -30.5t-34 -47.5
t-16 -61h316z" />
    <glyph glyph-name="Idblgrave" unicode="&#x208;" horiz-adv-x="272" 
d="M80 0v710h112v-710h-112zM120 917h89l51 -110l-55 -22zM-28 917h90l51 -110l-56 -22z" />
    <glyph glyph-name="idblgrave" unicode="&#x209;" horiz-adv-x="242" 
d="M108 730h89l51 -110l-55 -22zM-40 730h90l51 -110l-56 -22zM66 0v523h110v-523h-110z" />
    <glyph glyph-name="Iinvertedbreve" unicode="&#x20a;" horiz-adv-x="272" 
d="M80 0v710h112v-710h-112zM134 865q-23 0 -40.5 -21t-17.5 -50h-61q0 26 9 48.5t25 39t37.5 25.5t47.5 9q25 0 47 -9t38 -25.5t25 -39t9 -48.5h-61q-3 31 -19.5 51t-38.5 20z" />
    <glyph glyph-name="iinvertedbreve" unicode="&#x20b;" horiz-adv-x="242" 
d="M122 679q-23 0 -40.5 -21t-17.5 -50h-61q0 26 9 48.5t25 39t37.5 25.5t47.5 9q25 0 47 -9t38 -25.5t25 -39t9 -48.5h-61q-3 31 -19.5 51t-38.5 20zM66 0v523h110v-523h-110z" />
    <glyph glyph-name="Odblgrave" unicode="&#x20c;" 
d="M347 917h89l51 -110l-55 -22zM199 917h90l51 -110l-56 -22zM375 -5q-76 0 -138.5 30.5t-107.5 81t-69.5 115.5t-24.5 133q0 71 26 136t71.5 115t108 79.5t136.5 29.5q76 0 138.5 -31.5t107 -82.5t69 -115.5t24.5 -131.5q0 -71 -25.5 -136t-71.5 -114.5t-108.5 -79
t-135.5 -29.5zM149 355q0 -50 16 -97t45.5 -83t71.5 -57.5t94 -21.5q54 0 95.5 22.5t70.5 59.5t44 83t15 94q0 51 -16 97.5t-45.5 82t-71 57t-92.5 21.5q-54 0 -96 -22.5t-71 -58.5t-44.5 -82.5t-15.5 -94.5z" />
    <glyph glyph-name="odblgrave" unicode="&#x20d;" horiz-adv-x="602" 
d="M276 730h89l51 -110l-55 -22zM128 730h90l51 -110l-56 -22zM301 -10q-62 0 -111.5 22t-84.5 59t-54 86.5t-19 103.5t19 103.5t54.5 86.5t85 59t110.5 22t110.5 -22t85 -59t54.5 -86.5t19 -103.5t-19 -103.5t-54.5 -86.5t-85 -59t-110.5 -22zM145 260q0 -38 12 -70
t33 -55.5t49.5 -37t61.5 -13.5t61.5 13.5t49.5 37.5t33 56t12 70q0 37 -12 69.5t-33 56.5t-49.5 37.5t-61.5 13.5q-32 0 -60.5 -14t-49.5 -38t-33.5 -56.5t-12.5 -69.5z" />
    <glyph glyph-name="Oinvertedbreve" unicode="&#x20e;" 
d="M377 865q-23 0 -40.5 -21t-17.5 -50h-61q0 26 9 48.5t25 39t37.5 25.5t47.5 9q25 0 47 -9t38 -25.5t25 -39t9 -48.5h-61q-3 31 -19.5 51t-38.5 20zM375 -5q-76 0 -138.5 30.5t-107.5 81t-69.5 115.5t-24.5 133q0 71 26 136t71.5 115t108 79.5t136.5 29.5
q76 0 138.5 -31.5t107 -82.5t69 -115.5t24.5 -131.5q0 -71 -25.5 -136t-71.5 -114.5t-108.5 -79t-135.5 -29.5zM149 355q0 -50 16 -97t45.5 -83t71.5 -57.5t94 -21.5q54 0 95.5 22.5t70.5 59.5t44 83t15 94q0 51 -16 97.5t-45.5 82t-71 57t-92.5 21.5q-54 0 -96 -22.5
t-71 -58.5t-44.5 -82.5t-15.5 -94.5z" />
    <glyph glyph-name="oinvertedbreve" unicode="&#x20f;" horiz-adv-x="602" 
d="M301 679q-23 0 -40.5 -21t-17.5 -50h-61q0 26 9 48.5t25 39t37.5 25.5t47.5 9q25 0 47 -9t38 -25.5t25 -39t9 -48.5h-61q-3 31 -19.5 51t-38.5 20zM301 -10q-62 0 -111.5 22t-84.5 59t-54 86.5t-19 103.5t19 103.5t54.5 86.5t85 59t110.5 22t110.5 -22t85 -59t54.5 -86.5
t19 -103.5t-19 -103.5t-54.5 -86.5t-85 -59t-110.5 -22zM145 260q0 -38 12 -70t33 -55.5t49.5 -37t61.5 -13.5t61.5 13.5t49.5 37.5t33 56t12 70q0 37 -12 69.5t-33 56.5t-49.5 37.5t-61.5 13.5q-32 0 -60.5 -14t-49.5 -38t-33.5 -56.5t-12.5 -69.5z" />
    <glyph glyph-name="Rdblgrave" unicode="&#x210;" horiz-adv-x="661" 
d="M294 917h89l51 -110l-55 -22zM146 917h90l51 -110l-56 -22zM80 0v710h309q48 0 88.5 -20t69.5 -52.5t45.5 -74t16.5 -84.5q0 -36 -10 -69t-28 -61t-44 -48.5t-57 -30.5l167 -270h-127l-154 247h-164v-247h-112zM192 346h196q24 0 43.5 10.5t33.5 29t22 42.5t8 51t-9.5 51
t-25 42t-36 28.5t-42.5 10.5h-190v-265z" />
    <glyph glyph-name="rdblgrave" unicode="&#x211;" horiz-adv-x="374" 
d="M196 730h89l51 -110l-55 -22zM48 730h90l51 -110l-56 -22zM360 428q-64 -2 -113.5 -29.5t-70.5 -78.5v-320h-110v523h102v-117q27 54 70.5 86.5t93.5 35.5h17q6 0 11 -1v-99z" />
    <glyph glyph-name="Rinvertedbreve" unicode="&#x212;" horiz-adv-x="661" 
d="M323 865q-23 0 -40.5 -21t-17.5 -50h-61q0 26 9 48.5t25 39t37.5 25.5t47.5 9q25 0 47 -9t38 -25.5t25 -39t9 -48.5h-61q-3 31 -19.5 51t-38.5 20zM80 0v710h309q48 0 88.5 -20t69.5 -52.5t45.5 -74t16.5 -84.5q0 -36 -10 -69t-28 -61t-44 -48.5t-57 -30.5l167 -270h-127
l-154 247h-164v-247h-112zM192 346h196q24 0 43.5 10.5t33.5 29t22 42.5t8 51t-9.5 51t-25 42t-36 28.5t-42.5 10.5h-190v-265z" />
    <glyph glyph-name="rinvertedbreve" unicode="&#x213;" horiz-adv-x="374" 
d="M211 679q-23 0 -40.5 -21t-17.5 -50h-61q0 26 9 48.5t25 39t37.5 25.5t47.5 9q25 0 47 -9t38 -25.5t25 -39t9 -48.5h-61q-3 31 -19.5 51t-38.5 20zM360 428q-64 -2 -113.5 -29.5t-70.5 -78.5v-320h-110v523h102v-117q27 54 70.5 86.5t93.5 35.5h16q7 0 12 -1v-99z" />
    <glyph glyph-name="Udblgrave" unicode="&#x214;" 
d="M351 917h89l51 -110l-55 -22zM203 917h90l51 -110l-56 -22zM376 96q56 0 93 22t59.5 57.5t32 81t9.5 93.5v360h113v-360q0 -73 -17 -137.5t-54 -113t-95.5 -76.5t-140.5 -28q-85 0 -143.5 29.5t-94.5 79t-52 113.5t-16 133v360h112v-360q0 -49 9.5 -94.5t32 -81t60 -57
t92.5 -21.5z" />
    <glyph glyph-name="udblgrave" unicode="&#x215;" horiz-adv-x="609" 
d="M277 730h89l51 -110l-55 -22zM129 730h90l51 -110l-56 -22zM227 -10q-82 0 -124 53.5t-42 159.5v320h110v-298q0 -141 100 -141q47 0 89 29t65 84v326h110v-393q0 -19 6.5 -27t23.5 -9v-94q-17 -3 -28 -4t-21 -1q-30 0 -51 16.5t-22 42.5l-2 52q-35 -57 -91 -86.5
t-123 -29.5z" />
    <glyph glyph-name="Uinvertedbreve" unicode="&#x216;" 
d="M376 865q-23 0 -40.5 -21t-17.5 -50h-61q0 26 9 48.5t25 39t37.5 25.5t47.5 9q25 0 47 -9t38 -25.5t25 -39t9 -48.5h-61q-3 31 -19.5 51t-38.5 20zM376 96q56 0 93 22t59.5 57.5t32 81t9.5 93.5v360h113v-360q0 -73 -17 -137.5t-54 -113t-95.5 -76.5t-140.5 -28
q-85 0 -143.5 29.5t-94.5 79t-52 113.5t-16 133v360h112v-360q0 -49 9.5 -94.5t32 -81t60 -57t92.5 -21.5z" />
    <glyph glyph-name="uinvertedbreve" unicode="&#x217;" horiz-adv-x="609" 
d="M296 679q-23 0 -40.5 -21t-17.5 -50h-61q0 26 9 48.5t25 39t37.5 25.5t47.5 9q25 0 47 -9t38 -25.5t25 -39t9 -48.5h-61q-3 31 -19.5 51t-38.5 20zM227 -10q-82 0 -124 53.5t-42 159.5v320h110v-298q0 -141 100 -141q47 0 89 29t65 84v326h110v-393q0 -19 6.5 -27
t23.5 -9v-94q-17 -3 -28 -4t-21 -1q-30 0 -51 16.5t-22 42.5l-2 52q-35 -57 -91 -86.5t-123 -29.5z" />
    <glyph glyph-name="uni0218" unicode="&#x218;" horiz-adv-x="611" 
d="M280 -213l23 77h-32v88h95v-88l-35 -77h-51zM500 543q-10 11 -29 23.5t-44.5 23.5t-56 18t-62.5 7q-71 0 -104.5 -26t-33.5 -72q0 -26 10.5 -42.5t32.5 -29t55 -22t77 -20.5q54 -13 97.5 -29t73.5 -39t46.5 -56.5t16.5 -81.5q0 -54 -20.5 -93t-56 -63.5t-82.5 -36
t-101 -11.5q-81 0 -156.5 24.5t-136.5 71.5l51 96q13 -13 37.5 -29t57 -29.5t70.5 -23t79 -9.5q66 0 102 23t36 68q0 27 -13.5 45t-38.5 31.5t-61 24.5t-82 23q-53 14 -92.5 29.5t-65.5 37.5t-39.5 51.5t-13.5 71.5q0 52 20 92.5t54.5 68t81.5 41.5t102 14q72 0 133 -23
t107 -57z" />
    <glyph glyph-name="uni0219" unicode="&#x219;" horiz-adv-x="496" 
d="M214 -213l23 77h-32v88h95v-88l-35 -77h-51zM256 -10q-63 0 -125.5 20.5t-107.5 58.5l44 70q47 -34 93 -51.5t94 -17.5q49 0 77.5 19t28.5 54q0 33 -32 48t-100 33q-49 13 -84 25t-57 28t-32 37t-10 51q0 40 15.5 71t43 52.5t64.5 32.5t80 11q59 0 110 -18t91 -52
l-47 -66q-73 58 -155 58q-42 0 -70.5 -17.5t-28.5 -55.5q0 -16 6 -27t19.5 -19t35 -14.5t53.5 -14.5q53 -13 91.5 -26t63.5 -30.5t37 -41t12 -56.5q0 -75 -56.5 -118.5t-153.5 -43.5z" />
    <glyph glyph-name="uni021A" unicode="&#x21a;" horiz-adv-x="616" 
d="M270 -213l23 77h-32v88h95v-88l-35 -77h-51zM601 611h-236v-611h-113v611h-237v99h586v-99z" />
    <glyph glyph-name="uni021B" unicode="&#x21b;" horiz-adv-x="367" 
d="M177 -213l23 77h-32v88h95v-88l-35 -77h-51zM357 27q-21 -10 -58 -22.5t-79 -12.5q-26 0 -49 7t-40.5 21t-27.5 36.5t-10 54.5v327h-69v85h69v172h110v-172h114v-85h-114v-292q2 -28 17.5 -40.5t38.5 -12.5t44 8t31 13z" />
    <glyph glyph-name="dotlessj" unicode="&#x237;" horiz-adv-x="242" 
d="M5 -191q-36 0 -68.5 11t-58.5 34l49 74q14 -12 31 -17.5t34 -5.5q29 0 51.5 21.5t22.5 54.5v542h110v-534q0 -40 -14 -73t-37 -57t-54.5 -37t-65.5 -13z" />
    <glyph glyph-name="schwa" unicode="&#x259;" horiz-adv-x="595" 
d="M294 -10q-62 0 -111.5 21.5t-84.5 58.5t-54.5 86.5t-19.5 104.5q0 8 0.5 18.5t2.5 17.5h419q-3 35 -16.5 63t-35 48t-49 31t-57.5 11q-22 0 -43.5 -5.5t-39.5 -16t-32.5 -25t-21.5 -32.5l-95 27q13 29 36.5 53.5t54 42.5t67.5 28t79 10q61 0 110.5 -21.5t85 -58.5
t55 -86.5t19.5 -104.5q0 -56 -19 -105t-54 -86t-85 -58.5t-111 -21.5zM296 71q31 0 58 11.5t47 32.5t32.5 49.5t14.5 62.5h-313q3 -35 16.5 -63.5t35 -49t49.5 -32t60 -11.5z" />
    <glyph glyph-name="apostrophe" unicode="&#x2bc;" horiz-adv-x="538" 
d="M268 598l-70 22l35 68l-4 42h130z" />
    <glyph glyph-name="circumflex" unicode="&#x2c6;" horiz-adv-x="355" 
d="M34 635l104 95h79l104 -95l-59 -28l-85 63l-85 -63z" />
    <glyph glyph-name="caron" unicode="&#x2c7;" horiz-adv-x="355" 
d="M92 730l85 -63l85 63l59 -28l-104 -95h-79l-104 95z" />
    <glyph glyph-name="uni02C9" unicode="&#x2c9;" horiz-adv-x="411" 
d="M58 644v70h296v-70h-296z" />
    <glyph glyph-name="breve" unicode="&#x2d8;" horiz-adv-x="312" 
d="M156 659q22 0 38.5 20t19.5 51h61q0 -26 -9 -48.5t-25 -39t-38 -25.5t-47 -9q-26 0 -47.5 9t-37.5 25.5t-25 39t-9 48.5h61q0 -29 17.5 -50t40.5 -21z" />
    <glyph glyph-name="dotaccent" unicode="&#x2d9;" horiz-adv-x="199" 
d="M50 615v115h99v-115h-99z" />
    <glyph glyph-name="ring" unicode="&#x2da;" horiz-adv-x="257" 
d="M40 657q0 35 24.5 54t63.5 19q40 0 64.5 -19t24.5 -54q0 -34 -24.5 -53.5t-64.5 -19.5q-39 0 -63.5 19.5t-24.5 53.5zM128 694q-17 0 -28.5 -10t-11.5 -27q0 -15 11.5 -26t28.5 -11t29 10.5t12 26.5q0 17 -12 27t-29 10z" />
    <glyph glyph-name="ogonek" unicode="&#x2db;" horiz-adv-x="272" 
d="M160 -188q-49 8 -74 30.5t-25 51.5q0 64 113 126l33 -20q-42 -26 -61 -47t-19 -42q0 -37 58 -41z" />
    <glyph glyph-name="tilde" unicode="&#x2dc;" horiz-adv-x="426" 
d="M277 615q-23 0 -40 6.5t-31.5 15t-28.5 15t-30 6.5q-17 0 -26.5 -7t-14.5 -15.5t-6.5 -16.5t-1.5 -9h-62q0 8 5 27t17.5 38.5t33 34.5t51.5 15q22 0 38.5 -7t31 -15t29 -15t32.5 -7t29 7t16.5 16t7 16.5t1.5 9.5h63q0 -6 -5.5 -25t-18.5 -39t-35 -35.5t-55 -15.5z" />
    <glyph glyph-name="hungarumlaut" unicode="&#x2dd;" horiz-adv-x="351" 
d="M92 598l-55 22l51 110h89zM240 598l-56 22l51 110h90z" />
    <glyph glyph-name="uni030F" unicode="&#x30f;" horiz-adv-x="351" 
d="M174 730h89l51 -110l-55 -22zM26 730h90l51 -110l-56 -22z" />
    <glyph glyph-name="uni0311" unicode="&#x311;" horiz-adv-x="312" 
d="M156 679q-23 0 -40.5 -21t-17.5 -50h-61q0 26 9 48.5t25 39t37.5 25.5t47.5 9q25 0 47 -9t38 -25.5t25 -39t9 -48.5h-61q-3 31 -19.5 51t-38.5 20z" />
    <glyph glyph-name="uni0394" unicode="&#x394;" horiz-adv-x="650" 
d="M629 85v-85h-609v85l259 625h92zM512 99l-187 483l-186 -483h373z" />
    <glyph glyph-name="uni03A9" unicode="&#x3a9;" horiz-adv-x="767" 
d="M41 90h173q-76 42 -119.5 114.5t-43.5 162.5q0 69 25.5 132t70 111t105 76.5t131.5 28.5t132 -28.5t105.5 -76.5t70 -111t25.5 -132q0 -90 -43.5 -162.5t-119.5 -114.5h173v-90h-298v90q40 14 72.5 42.5t55.5 66t35 81t12 87.5q0 46 -15.5 90t-44 79t-69 56.5t-91.5 21.5
t-91.5 -21.5t-69 -56.5t-43.5 -79t-15 -90q0 -44 12 -87.5t35 -81t55 -66t73 -42.5v-90h-298v90z" />
    <glyph glyph-name="uni03BC" unicode="&#x3bc;" horiz-adv-x="617" 
d="M66 523h110v-298q0 -141 102 -141q45 0 87.5 29t65.5 84v326h110v-393q0 -35 32 -36v-94q-18 -3 -29.5 -4t-22.5 -1q-32 0 -51.5 18t-20.5 45l-2 48q-11 -21 -29 -42t-41.5 -37.5t-50 -26.5t-54.5 -10q-44 0 -69 21.5t-33 46.5v-270h-104v735z" />
    <glyph glyph-name="pi" unicode="&#x3c0;" horiz-adv-x="625" 
d="M211 425v-425h-108v425h-78v97h554v-97h-104v-274q0 -29 15 -45.5t42 -16.5q11 0 26 4t28 9l16 -86q-24 -11 -57 -17.5t-59 -6.5q-55 0 -86.5 31t-31.5 88v314h-157z" />
    <glyph glyph-name="uni0400" unicode="&#x400;" horiz-adv-x="605" 
d="M569 99v-99h-487v710h478v-99h-366v-202h317v-93h-317v-217h375zM217 917h105l57 -110l-70 -22z" />
    <glyph glyph-name="uni0401" unicode="&#x401;" horiz-adv-x="605" 
d="M198 802v110h92v-110h-92zM375 802v110h92v-110h-92zM569 99v-99h-487v710h478v-99h-366v-202h317v-93h-317v-217h375z" />
    <glyph glyph-name="uni0402" unicode="&#x402;" horiz-adv-x="722" 
d="M187 612h-172v98h558v-98h-275v-218q34 29 79.5 44t97.5 15q106 0 165.5 -61t59.5 -175q0 -109 -55 -168t-161 -59q-64 0 -123 22l32 94q26 -11 46 -16.5t40 -5.5q106 0 106 133q0 139 -122 139q-89 0 -165 -67v-289h-111v612z" />
    <glyph glyph-name="uni0403" unicode="&#x403;" horiz-adv-x="518" 
d="M320 784l-72 22l57 110h105zM503 611h-308v-611h-113v710h421v-99z" />
    <glyph glyph-name="uni0404" unicode="&#x404;" horiz-adv-x="699" 
d="M677 159q-17 -40 -47 -70.5t-68.5 -51.5t-84.5 -32t-95 -11q-79 0 -143 32t-109 83.5t-69.5 117t-24.5 133.5q0 64 22.5 127.5t67 114t110 81.5t151.5 31q105 0 174 -43.5t104 -111.5l-88 -59q-15 32 -37 54t-48 35t-54 18.5t-55 5.5q-52 0 -91.5 -17t-67.5 -45.5
t-45 -65.5t-23 -76h320v-93h-323q6 -45 24.5 -85t48.5 -70.5t70.5 -48t89.5 -17.5q27 0 56 6.5t55.5 21t49 36.5t37.5 53z" />
    <glyph glyph-name="uni0405" unicode="&#x405;" horiz-adv-x="611" 
d="M500 543q-10 11 -29 23.5t-44.5 23.5t-56 18t-62.5 7q-71 0 -104.5 -26t-33.5 -72q0 -26 10.5 -42.5t32.5 -29t55 -22t77 -20.5q54 -13 97.5 -29t73.5 -39t46.5 -56.5t16.5 -81.5q0 -54 -20.5 -93t-56 -63.5t-82.5 -36t-101 -11.5q-81 0 -156.5 24.5t-136.5 71.5l51 96
q13 -13 37.5 -29t57 -29.5t70.5 -23t79 -9.5q66 0 102 23t36 68q0 27 -13.5 45t-38.5 31.5t-61 24.5t-82 23q-53 14 -92.5 29.5t-65.5 37.5t-39.5 51.5t-13.5 71.5q0 52 20 92.5t54.5 68t81.5 41.5t102 14q72 0 133 -23t107 -57z" />
    <glyph glyph-name="uni0406" unicode="&#x406;" horiz-adv-x="277" 
d="M82 0v710h112v-710h-112z" />
    <glyph glyph-name="uni0407" unicode="&#x407;" horiz-adv-x="277" 
d="M82 0v710h112v-710h-112zM4 802v110h92v-110h-92zM181 802v110h92v-110h-92z" />
    <glyph glyph-name="uni0408" unicode="&#x408;" horiz-adv-x="490" 
d="M37 125q17 -12 50.5 -23.5t76.5 -11.5q46 0 73.5 16.5t42 49t19 81t4.5 112.5v361h113v-361q0 -81 -8 -147.5t-34 -113.5t-76 -73t-134 -26q-90 0 -154 44z" />
    <glyph glyph-name="uni0409" unicode="&#x409;" horiz-adv-x="1022" 
d="M8 97q33 2 59 17t45.5 59t34.5 125t26 215l17 197h402v-284h186q46 0 86 -14t69 -41t46 -66.5t17 -90.5q0 -52 -16.5 -92t-45.5 -67t-68.5 -41t-85.5 -14h-301v611h-186l-9 -114q-11 -137 -29.5 -233t-49.5 -156t-76 -87.5t-108 -27.5zM774 97q53 0 80.5 31.5t27.5 85.5
t-27.5 86t-80.5 32h-182v-235h182z" />
    <glyph glyph-name="uni040A" unicode="&#x40a;" horiz-adv-x="1057" 
d="M82 710h113v-286h319v286h112v-284h186q46 0 86.5 -14t69.5 -41t46 -66.5t17 -90.5q0 -52 -16.5 -92t-46 -67t-69 -41t-85.5 -14h-300v325h-319v-325h-113v710zM808 97q54 0 81.5 30t27.5 85q0 54 -27.5 85t-81.5 31h-182v-231h182z" />
    <glyph glyph-name="uni040B" unicode="&#x40b;" horiz-adv-x="725" 
d="M577 217q0 71 -26.5 102.5t-88.5 31.5q-48 0 -89.5 -16t-74.5 -44v-291h-111v612h-172v98h554v-98h-271v-214q35 26 82.5 40.5t101.5 14.5q94 0 149.5 -49.5t55.5 -153.5v-250h-110v217z" />
    <glyph glyph-name="uni040C" unicode="&#x40c;" horiz-adv-x="637" 
d="M358 784l-72 22l57 110h105zM195 409h74l225 301h128l-254 -343l277 -367h-128l-237 308h-85v-308h-113v710h113v-301z" />
    <glyph glyph-name="uni040D" unicode="&#x40d;" horiz-adv-x="734" 
d="M261 917h105l57 -110l-70 -22zM195 173l387 537h89v-710h-113v527l-381 -527h-95v710h113v-537z" />
    <glyph glyph-name="uni040E" unicode="&#x40e;" horiz-adv-x="629" 
d="M180 -7q-20 0 -46.5 4.5t-44.5 15.5l9 94q14 -6 34.5 -11t38.5 -5q32 0 56 18.5t45 71.5l-259 529h121l190 -411l179 411h118l-250 -540q-22 -48 -42.5 -81.5t-43 -55t-48 -31t-57.5 -9.5zM323 789q-73 0 -118 33.5t-47 93.5h67q0 -27 28.5 -46.5t69.5 -19.5
q39 0 66 18.5t32 47.5h66q-2 -60 -47 -93.5t-117 -33.5z" />
    <glyph glyph-name="uni040F" unicode="&#x40f;" horiz-adv-x="703" 
d="M83 710h112v-611h313v611h113v-710h-215v-181h-109v181h-214v710z" />
    <glyph glyph-name="uni0410" unicode="&#x410;" horiz-adv-x="675" 
d="M289 710h98l280 -710h-118l-75 193h-274l-74 -193h-119zM452 276l-114 305l-118 -305h232z" />
    <glyph glyph-name="uni0411" unicode="&#x411;" horiz-adv-x="663" 
d="M82 710h509v-99h-396v-189h217q47 0 87 -13.5t69.5 -40.5t46 -66t16.5 -90t-16 -90.5t-45 -66.5t-69 -41t-87 -14h-332v710zM408 97q54 0 81.5 31t27.5 84t-27.5 84.5t-81.5 31.5h-213v-231h213z" />
    <glyph glyph-name="uni0412" unicode="&#x412;" horiz-adv-x="678" 
d="M625 183q0 -43 -17.5 -77t-47 -57.5t-69.5 -36t-85 -12.5h-339v710h366q37 0 67 -16t51 -41.5t32.5 -58t11.5 -65.5q0 -52 -26.5 -97.5t-75.5 -67.5q61 -18 96.5 -65.5t35.5 -115.5zM510 204q0 22 -7.5 42t-20 35t-30.5 24t-39 9h-234v-217h227q22 0 41 8.5t33 23t22 34
t8 41.5zM179 613v-209h206q21 0 38.5 8t31 21.5t21 32.5t7.5 42q0 46 -26 75.5t-66 29.5h-212z" />
    <glyph glyph-name="uni0413" unicode="&#x413;" horiz-adv-x="518" 
d="M503 611h-308v-611h-113v710h421v-99z" />
    <glyph glyph-name="uni0414" unicode="&#x414;" horiz-adv-x="736" 
d="M18 99h16q30 2 54.5 18t44 60.5t34 124.5t25.5 211l16 197h402v-611h108v-281h-104v182h-493v-182h-103v281zM498 99v512h-186l-10 -114q-7 -80 -16 -143.5t-22 -112t-29 -83.5t-36 -59h299z" />
    <glyph glyph-name="uni0415" unicode="&#x415;" horiz-adv-x="605" 
d="M569 99v-99h-487v710h478v-99h-366v-202h317v-93h-317v-217h375z" />
    <glyph glyph-name="uni0416" unicode="&#x416;" horiz-adv-x="990" 
d="M242 367l-222 343h128l190 -301h97v301h120v-301h98l189 301h129l-223 -343l246 -367h-128l-199 308h-112v-308h-120v308h-112l-199 -308h-127z" />
    <glyph glyph-name="uni0417" unicode="&#x417;" horiz-adv-x="533" 
d="M38 623q38 46 89 69t124 23q101 0 157.5 -43.5t56.5 -128.5q0 -57 -28 -100.5t-84 -59.5q66 -11 104.5 -56t38.5 -114q0 -49 -19 -89t-52.5 -68.5t-79.5 -44.5t-100 -16q-74 0 -131 27.5t-94 78.5l76 74q26 -36 62 -57t87 -21q30 0 55 8.5t43 24t28.5 37.5t10.5 49
q0 55 -43.5 88.5t-124.5 33.5h-64v91h60q70 0 108.5 27t38.5 75q0 44 -30 66t-78 22q-46 0 -82.5 -17t-60.5 -49z" />
    <glyph glyph-name="uni0418" unicode="&#x418;" horiz-adv-x="753" 
d="M195 173l387 537h89v-710h-113v527l-381 -527h-95v710h113v-537z" />
    <glyph glyph-name="uni0419" unicode="&#x419;" horiz-adv-x="753" 
d="M557 916q-1 -60 -46 -93.5t-118 -33.5q-72 0 -117.5 34t-46.5 93h67q0 -27 28.5 -46.5t69.5 -19.5q38 0 65 18.5t32 47.5h66zM195 173l387 537h89v-710h-113v527l-381 -527h-95v710h113v-537z" />
    <glyph glyph-name="uni041A" unicode="&#x41a;" horiz-adv-x="637" 
d="M195 409h74l225 301h128l-254 -343l277 -367h-128l-237 308h-85v-308h-113v710h113v-301z" />
    <glyph glyph-name="uni041B" unicode="&#x41b;" horiz-adv-x="674" 
d="M284 497q-11 -136 -29.5 -232t-49.5 -156.5t-76 -88t-108 -27.5l-13 104q33 2 59 17t45.5 59t34.5 125t26 215l17 197h402v-710h-113v611h-186z" />
    <glyph glyph-name="uni041C" unicode="&#x41c;" horiz-adv-x="875" 
d="M679 0v511l-211 -387h-62l-212 387v-511h-112v710h120l235 -434l235 434h120v-710h-113z" />
    <glyph glyph-name="uni041D" unicode="&#x41d;" horiz-adv-x="748" 
d="M665 710v-710h-113v313h-358v-313h-112v710h112v-297h358v297h113z" />
    <glyph glyph-name="uni041E" unicode="&#x41e;" 
d="M376 -5q-76 0 -138.5 30.5t-107.5 81t-69.5 115.5t-24.5 133q0 71 26 136t71.5 115t108 79.5t136.5 29.5q76 0 138.5 -31.5t107 -82.5t69 -115.5t24.5 -131.5q0 -71 -25.5 -136t-71.5 -114.5t-108.5 -79t-135.5 -29.5zM150 355q0 -50 16 -97t45.5 -83t71.5 -57.5
t94 -21.5q54 0 95.5 22.5t70.5 59.5t44 83t15 94q0 51 -16 97.5t-45.5 82t-71 57t-92.5 21.5q-54 0 -96 -22.5t-71 -58.5t-44.5 -82.5t-15.5 -94.5z" />
    <glyph glyph-name="uni041F" unicode="&#x41f;" horiz-adv-x="740" 
d="M82 710h576v-710h-113v611h-350v-611h-113v710z" />
    <glyph glyph-name="uni0420" unicode="&#x420;" horiz-adv-x="625" 
d="M82 0v710h298q48 0 88.5 -20t69.5 -52.5t45.5 -74t16.5 -84.5q0 -45 -15.5 -86.5t-43.5 -74t-67.5 -52t-87.5 -19.5h-192v-247h-112zM194 346h185q24 0 43.5 10t33.5 28t22 42t8 53q0 30 -9 54t-25 41.5t-36.5 27t-42.5 9.5h-179v-265z" />
    <glyph glyph-name="uni0421" unicode="&#x421;" horiz-adv-x="683" 
d="M35 360q0 64 23 127.5t67.5 114t108.5 81.5t145 31q97 0 166 -43t104 -112l-88 -59q-15 32 -36 54t-46 35t-52 18.5t-52 5.5q-56 0 -98 -22.5t-70.5 -59.5t-43 -83t-14.5 -92q0 -52 17 -99t47.5 -83t72.5 -57.5t92 -21.5q26 0 53.5 6.5t53 21t47 36.5t35.5 53l93 -53
q-17 -40 -48 -70.5t-70 -51.5t-82.5 -32t-85.5 -11q-75 0 -137 32t-107 83.5t-70 117t-25 133.5z" />
    <glyph glyph-name="uni0422" unicode="&#x422;" horiz-adv-x="616" 
d="M601 611h-236v-611h-113v611h-237v99h586v-99z" />
    <glyph glyph-name="uni0423" unicode="&#x423;" horiz-adv-x="629" 
d="M180 -7q-20 0 -46.5 4.5t-44.5 15.5l9 94q14 -6 34 -11t39 -5q32 0 56 18.5t45 71.5l-259 529h121l190 -411l179 411h118l-250 -540q-22 -48 -42.5 -81.5t-43 -55t-48 -31t-57.5 -9.5z" />
    <glyph glyph-name="uni0424" unicode="&#x424;" horiz-adv-x="764" 
d="M330 54q-146 14 -223 94.5t-77 213.5q0 66 19.5 120t57.5 94t94 65t129 32v91h110v-91q71 -7 125.5 -32t91.5 -65t56 -94t19 -120q0 -133 -75 -213.5t-217 -93.5v-93h-110v92zM440 157q180 24 180 208q0 183 -180 204v-412zM330 569q-188 -21 -188 -204q0 -185 188 -208
v412z" />
    <glyph glyph-name="uni0425" unicode="&#x425;" horiz-adv-x="641" 
d="M124 710l197 -280l197 280h123l-260 -360l252 -350h-123l-189 270l-189 -270h-124l253 350l-261 360h124z" />
    <glyph glyph-name="uni0426" unicode="&#x426;" horiz-adv-x="744" 
d="M623 0h-540v710h113v-611h310v611h113v-611h108v-281h-104v182z" />
    <glyph glyph-name="uni0427" unicode="&#x427;" horiz-adv-x="624" 
d="M430 710h112v-710h-112v289q-32 -13 -69 -19.5t-97 -6.5q-62 0 -105 18.5t-69.5 51.5t-38 77.5t-11.5 96.5v203h113v-176q0 -46 7 -78t23 -52.5t43 -29.5t67 -9q49 0 83.5 9t53.5 23v313z" />
    <glyph glyph-name="uni0428" unicode="&#x428;" horiz-adv-x="965" 
d="M883 710v-710h-801v710h113v-611h231v611h113v-611h231v611h113z" />
    <glyph glyph-name="uni0429" unicode="&#x429;" horiz-adv-x="1009" 
d="M887 0h-804v710h113v-611h231v611h112v-611h232v611h112v-611h107v-281h-103v182z" />
    <glyph glyph-name="uni042A" unicode="&#x42a;" horiz-adv-x="755" 
d="M15 710h327v-256h144q52 0 96.5 -15t77 -43.5t51 -70.5t18.5 -97q0 -56 -18.5 -98.5t-51 -71t-76.5 -43.5t-94 -15h-260v613h-214v97zM342 97h140q66 0 99 35.5t33 95.5t-34 96t-98 36h-140v-263z" />
    <glyph glyph-name="uni042B" unicode="&#x42b;" horiz-adv-x="861" 
d="M82 710h113v-256h144q52 0 96.5 -15t76.5 -43.5t50.5 -70.5t18.5 -97q0 -56 -18.5 -98.5t-51 -71t-76 -43.5t-94.5 -15h-259v710zM665 0v709h113v-709h-113zM195 97h140q66 0 99 35.5t33 95.5t-34 96t-98 36h-140v-263z" />
    <glyph glyph-name="uni042C" unicode="&#x42c;" horiz-adv-x="608" 
d="M82 710h113v-256h144q52 0 96.5 -15t76.5 -43.5t50.5 -70.5t18.5 -97q0 -56 -18.5 -98.5t-51 -71t-76 -43.5t-94.5 -15h-259v710zM195 97h140q66 0 99 35.5t33 95.5t-34 96t-98 36h-140v-263z" />
    <glyph glyph-name="uni042D" unicode="&#x42d;" horiz-adv-x="699" 
d="M317 -6q-49 0 -94.5 11t-84 32t-68.5 51.5t-47 70.5l93 53q15 -31 37.5 -53t49 -36.5t55 -21t55.5 -6.5q49 0 89.5 17.5t70.5 48t48.5 70.5t24.5 85h-323v93h321q-7 39 -24 76t-45 65.5t-67.5 45.5t-91.5 17q-27 0 -54.5 -5.5t-53.5 -18.5t-48.5 -35t-37.5 -54l-88 59
q35 68 104 111.5t174 43.5q86 0 151.5 -31t110 -81.5t67 -114t22.5 -127.5q0 -68 -24.5 -133.5t-69.5 -117t-109 -83.5t-143 -32z" />
    <glyph glyph-name="uni042E" unicode="&#x42e;" horiz-adv-x="996" 
d="M630 -5q-66 0 -121 23t-96.5 64.5t-67 99t-31.5 127.5h-118v-309h-113v710h113v-302h119q7 70 34 127t69 97t97 61.5t118 21.5q73 0 132.5 -27.5t102.5 -76t66.5 -114.5t23.5 -143q0 -82 -24.5 -148.5t-68.5 -113t-104 -72t-131 -25.5zM426 355q0 -122 55 -190.5
t150 -68.5q51 0 90.5 18.5t66.5 52.5t41.5 82t14.5 106q0 61 -15 109t-43 81t-67.5 50.5t-87.5 17.5t-86.5 -18.5t-64.5 -52t-40 -81.5t-14 -106z" />
    <glyph glyph-name="uni042F" unicode="&#x42f;" horiz-adv-x="648" 
d="M453 0v269h-139l-162 -269h-127l174 283q-30 12 -55.5 32.5t-44 47.5t-28.5 59t-10 68q0 42 16.5 82t45.5 70.5t69.5 49t88.5 18.5h285v-710h-113zM453 612h-162q-23 0 -44 -9t-37 -25.5t-25.5 -39t-9.5 -48.5t8 -48t23 -38.5t35.5 -26t44.5 -9.5h167v244z" />
    <glyph glyph-name="uni0430" unicode="&#x430;" horiz-adv-x="565" 
d="M205 -10q-38 0 -70.5 12.5t-56 34.5t-37 52t-13.5 65q0 37 16 67t45.5 52t70 34t89.5 12q37 0 73 -6.5t65 -17.5v36q0 58 -33 90.5t-95 32.5q-42 0 -82.5 -15.5t-83.5 -44.5l-34 70q101 68 210 68q108 0 168 -55t60 -158v-189q0 -35 29 -36v-94q-16 -3 -27.5 -4t-22.5 -1
q-32 0 -49.5 16t-21.5 41l-3 33q-35 -46 -86.5 -70.5t-110.5 -24.5zM235 71q40 0 75.5 14.5t55.5 40.5q21 18 21 38v69q-28 11 -59.5 17t-61.5 6q-59 0 -96.5 -25.5t-37.5 -67.5q0 -39 29 -65.5t74 -26.5z" />
    <glyph glyph-name="uni0431" unicode="&#x431;" horiz-adv-x="598" 
d="M322 606q-70 -16 -111 -61.5t-55 -129.5q32 40 76.5 61t98.5 21q49 0 91.5 -19.5t73.5 -53.5t49 -80t18 -100q0 -55 -18.5 -101.5t-52 -80.5t-81.5 -53t-108 -19q-125 0 -189.5 82.5t-64.5 242.5q0 170 68 262t201 123l179 41l12 -92zM162 249q0 -37 11 -67.5t30.5 -53
t46 -35t58.5 -12.5q31 0 57.5 12t45.5 33t29.5 51t10.5 66q0 35 -11 64.5t-30.5 50.5t-46.5 32.5t-59 11.5t-58 -11t-44.5 -31.5t-29 -48.5t-10.5 -62z" />
    <glyph glyph-name="uni0432" unicode="&#x432;" horiz-adv-x="541" 
d="M355 523q28 0 52.5 -10t42 -27.5t27.5 -41.5t10 -51q0 -34 -17 -68.5t-58 -51.5q45 -13 70.5 -45.5t25.5 -83.5q0 -69 -48 -106.5t-127 -37.5h-263v523h285zM307 302q33 0 52.5 18.5t19.5 53.5q0 29 -16 49t-51 20h-134v-141h129zM323 80q35 0 55.5 22.5t20.5 53.5
t-19.5 53t-54.5 22h-147v-151h145z" />
    <glyph glyph-name="uni0433" unicode="&#x433;" horiz-adv-x="427" 
d="M410 436h-234v-436h-108v523h342v-87z" />
    <glyph glyph-name="uni0434" unicode="&#x434;" horiz-adv-x="610" 
d="M17 95h29q24 4 40 18.5t27.5 45.5t20 81.5t16.5 128.5l17 154h345v-428h66v-252h-96v157h-372v-157h-93v252zM404 95v338h-138l-13 -96q-13 -95 -28.5 -152.5t-39.5 -89.5h219z" />
    <glyph glyph-name="uni0435" unicode="&#x435;" horiz-adv-x="595" 
d="M303 -10q-61 0 -111 21.5t-85.5 58.5t-55 86t-19.5 104t19.5 104.5t55 87t85.5 59t112 21.5q61 0 110.5 -22t84.5 -58.5t53.5 -85t18.5 -101.5q0 -12 -1 -22.5t-2 -17.5h-419q3 -35 16.5 -63t35 -48.5t49 -31.5t57.5 -11q22 0 43.5 5.5t39.5 16t32 25.5t22 33l94 -27
q-27 -59 -89.5 -96.5t-145.5 -37.5zM462 301q-3 33 -16.5 61t-34.5 47.5t-49 30.5t-59 11t-58.5 -11t-48.5 -30.5t-34 -47.5t-16 -61h316z" />
    <glyph glyph-name="uni0436" unicode="&#x436;" horiz-adv-x="795" 
d="M144 523l130 -220h68v220h112v-220h68l130 220h122l-160 -254l176 -269h-126l-130 216h-81v-216h-110v216h-80l-130 -216h-127l175 269l-160 254h123z" />
    <glyph glyph-name="uni0437" unicode="&#x437;" horiz-adv-x="424" 
d="M38 468q34 32 75.5 48t88.5 16q35 0 64.5 -9t51 -25.5t33.5 -41t12 -55.5q0 -44 -23.5 -75.5t-65.5 -37.5q57 -9 88 -45.5t31 -91.5q0 -36 -14.5 -65.5t-40.5 -51t-62 -33t-79 -11.5q-113 0 -175 76l55 73q41 -56 116 -56q45 0 69.5 19.5t24.5 57.5q0 87 -125 87h-37v72
h37q48 0 75 20t27 53q0 27 -19.5 42.5t-52.5 15.5q-54 0 -104 -44z" />
    <glyph glyph-name="uni0438" unicode="&#x438;" horiz-adv-x="597" 
d="M176 156l268 367h84v-523h-108v359l-263 -359h-89v523h108v-367z" />
    <glyph glyph-name="uni0439" unicode="&#x439;" horiz-adv-x="596" 
d="M467 730q-2 -60 -45 -91t-113 -31t-113 31t-46 91h63q2 -40 26.5 -55.5t69.5 -15.5q44 0 68.5 15.5t27.5 55.5h62zM176 156l268 367h84v-523h-108v359l-263 -359h-89v523h108v-367z" />
    <glyph glyph-name="uni043A" unicode="&#x43a;" horiz-adv-x="519" 
d="M384 523h120l-205 -254l220 -269h-123l-171 216h-49v-216h-108v523h108v-218h41z" />
    <glyph glyph-name="uni043B" unicode="&#x43b;" horiz-adv-x="562" 
d="M6 92q30 2 50 13.5t34 41.5t23.5 83t18.5 139l17 154h345v-523h-109v433h-138l-13 -96q-14 -101 -30 -166t-40.5 -103.5t-60 -54.5t-86.5 -18z" />
    <glyph glyph-name="uni043C" unicode="&#x43c;" horiz-adv-x="692" 
d="M346 217l167 306h111v-523h-106v343l-143 -261h-57l-144 261v-343h-106v523h112z" />
    <glyph glyph-name="uni043D" unicode="&#x43d;" horiz-adv-x="590" 
d="M176 315h238v208h108v-523h-108v222h-238v-222h-108v523h108v-208z" />
    <glyph glyph-name="uni043E" unicode="&#x43e;" horiz-adv-x="602" 
d="M301 -10q-62 0 -111.5 22t-84.5 59t-54 86.5t-19 103.5t19 103.5t54.5 86.5t85 59t110.5 22t110.5 -22t85 -59t54.5 -86.5t19 -103.5t-19 -103.5t-54.5 -86.5t-85 -59t-110.5 -22zM145 260q0 -38 12 -70t33 -55.5t49.5 -37t61.5 -13.5t61.5 13.5t49.5 37.5t33 56t12 70
q0 37 -12 69.5t-33 56.5t-49.5 37.5t-61.5 13.5q-32 0 -60.5 -14t-49.5 -38t-33.5 -56.5t-12.5 -69.5z" />
    <glyph glyph-name="uni043F" unicode="&#x43f;" horiz-adv-x="575" 
d="M507 0h-108v428h-223v-428h-108v523h439v-523z" />
    <glyph glyph-name="uni0440" unicode="&#x440;" horiz-adv-x="630" 
d="M365 -10q-63 0 -111 30t-76 78v-311h-110v736h97v-94q30 47 77.5 75t107.5 28q54 0 99 -22t78 -59t51.5 -86t18.5 -103q0 -57 -17 -106.5t-48 -86t-73.5 -58t-93.5 -21.5zM329 84q35 0 63.5 15t49 40t31.5 57t11 66q0 36 -12.5 68t-34 56t-51.5 38t-65 14q-21 0 -44 -8
t-43 -22t-35 -32.5t-21 -40.5v-137q10 -24 26 -45t35.5 -36t42.5 -24t47 -9z" />
    <glyph glyph-name="uni0441" unicode="&#x441;" horiz-adv-x="559" 
d="M32 262q0 55 19 104t54.5 86t85.5 58.5t112 21.5q81 0 139.5 -35.5t87.5 -94.5l-107 -34q-19 33 -51 51.5t-71 18.5q-33 0 -61.5 -13t-49.5 -36.5t-33 -55.5t-12 -71q0 -38 12.5 -70.5t34 -56.5t50 -37.5t60.5 -13.5q20 0 40 5.5t36.5 15.5t29 23t18.5 28l108 -32
q-26 -59 -87 -96.5t-144 -37.5q-61 0 -111 22t-85.5 59.5t-55 86.5t-19.5 104z" />
    <glyph glyph-name="uni0442" unicode="&#x442;" horiz-adv-x="486" 
d="M297 0h-108v428h-170v95h448v-95h-170v-428z" />
    <glyph glyph-name="uni0443" unicode="&#x443;" horiz-adv-x="547" 
d="M73 -107q17 -13 33 -18t32 -5q26 0 46.5 28.5t39.5 101.5l-215 523h113l162 -426l144 426h104l-217 -593q-32 -87 -71.5 -121t-95.5 -34q-24 0 -42 5t-33 18v95z" />
    <glyph glyph-name="uni0444" unicode="&#x444;" horiz-adv-x="697" 
d="M405 528q62 -7 110.5 -29.5t81.5 -57.5t50 -81.5t17 -100.5q0 -110 -67 -180.5t-192 -84.5v-207h-110v206q-127 13 -195 84t-68 182t68 183.5t195 86.5v201h110v-202zM295 433q-77 -10 -114.5 -53t-37.5 -118t37.5 -119.5t114.5 -55.5v346zM405 88q149 23 149 174
q0 73 -37 116t-112 54v-344z" />
    <glyph glyph-name="uni0445" unicode="&#x445;" horiz-adv-x="522" 
d="M124 523l128 -179l9 -17l9 17l127 179h115l-191 -262l193 -261h-115l-129 178l-9 16l-9 -16l-129 -178h-115l193 261l-191 262h114z" />
    <glyph glyph-name="uni0446" unicode="&#x446;" horiz-adv-x="592" 
d="M68 523h108v-428h201v428h109v-428h91v-252h-97v157h-412v523z" />
    <glyph glyph-name="uni0447" unicode="&#x447;" horiz-adv-x="497" 
d="M429 0h-108v198q-23 -8 -47 -11.5t-67 -3.5q-46 0 -78 15t-52.5 40t-30 58t-9.5 69v158h107v-139q0 -62 23.5 -86t65.5 -24q35 0 55.5 6t32.5 16v227h108v-523z" />
    <glyph glyph-name="uni0448" unicode="&#x448;" horiz-adv-x="777" 
d="M68 0v523h108v-428h158v428h109v-428h158v428h108v-523h-641z" />
    <glyph glyph-name="uni0449" unicode="&#x449;" horiz-adv-x="815" 
d="M68 523h108v-428h158v428h109v-428h158v428h108v-428h91v-252h-96v157h-636v523z" />
    <glyph glyph-name="uni044A" unicode="&#x44a;" horiz-adv-x="596" 
d="M281 350h101q38 0 72.5 -11t61 -33.5t42 -55.5t15.5 -76q0 -44 -15.5 -76.5t-41.5 -54.5t-60 -32.5t-72 -10.5h-211v430h-154v93h262v-173zM377 89q39 0 62.5 21t23.5 63q0 43 -25 65.5t-60 22.5h-97v-172h96z" />
    <glyph glyph-name="uni044B" unicode="&#x44b;" horiz-adv-x="692" 
d="M68 523h108v-173h95q38 0 72.5 -11t60.5 -33.5t41.5 -55.5t15.5 -76q0 -44 -15.5 -76.5t-41.5 -54.5t-60 -32.5t-72 -10.5h-204v523zM515 523h109v-523h-109v523zM265 89q39 0 62.5 21t23.5 63q0 43 -25 65.5t-60 22.5h-90v-172h89z" />
    <glyph glyph-name="uni044C" unicode="&#x44c;" horiz-adv-x="491" 
d="M68 523h108v-173h101q38 0 72.5 -11t61 -33.5t42 -55.5t15.5 -76q0 -44 -15.5 -76.5t-41.5 -54.5t-60.5 -32.5t-71.5 -10.5h-211v523zM272 89q38 0 62 21t24 63q0 43 -25 65.5t-60 22.5h-97v-172h96z" />
    <glyph glyph-name="uni044D" unicode="&#x44d;" horiz-adv-x="546" 
d="M245 -9q-38 0 -72.5 8.5t-63.5 24.5t-51.5 39.5t-35.5 53.5l83 43q10 -20 26 -35t35 -25.5t40 -16t41 -5.5q29 0 55 10.5t47 29.5t34.5 46.5t18.5 60.5h-230v78h229q-6 30 -19.5 56t-34 45t-47 30t-57.5 11q-38 0 -76.5 -17.5t-62.5 -58.5l-74 46q27 51 81.5 84.5
t132.5 33.5q63 0 113 -23t85 -60.5t53.5 -86.5t18.5 -101t-18.5 -101t-53.5 -86.5t-85 -60.5t-112 -23z" />
    <glyph glyph-name="uni044E" unicode="&#x44e;" horiz-adv-x="764" 
d="M247 312q7 51 27.5 92t51.5 70t71.5 44.5t87.5 15.5q55 0 100 -20.5t77.5 -57t50 -87t17.5 -109.5q0 -63 -18.5 -113t-51.5 -85t-78.5 -53.5t-98.5 -18.5q-49 0 -90 16t-72 46t-50.5 72t-25.5 93h-69v-217h-109v523h109v-211h71zM350 261q0 -86 36 -130.5t98 -44.5
q66 0 102 46t36 130q0 85 -37.5 130t-100.5 45q-64 0 -99 -47.5t-35 -128.5z" />
    <glyph glyph-name="uni044F" unicode="&#x44f;" horiz-adv-x="518" 
d="M153 201q-45 17 -73 54t-28 97q0 39 14 70.5t38 54t57.5 35t72.5 12.5h216v-524h-109v183h-85l-112 -183h-121zM341 272v161h-97q-30 0 -56 -21t-26 -61q0 -38 23.5 -58.5t55.5 -20.5h100z" />
    <glyph glyph-name="uni0450" unicode="&#x450;" horiz-adv-x="595" 
d="M303 -10q-61 0 -111 21.5t-85.5 58.5t-55 86t-19.5 104t19.5 104.5t55 87t85.5 59t112 21.5q61 0 110.5 -22t84.5 -58.5t53.5 -85t18.5 -101.5q0 -12 -1 -22.5t-2 -17.5h-419q3 -35 16.5 -63t35 -48.5t49 -31.5t57.5 -11q22 0 43.5 5.5t39.5 16t32 25.5t22 33l94 -27
q-27 -59 -89.5 -96.5t-145.5 -37.5zM462 301q-3 33 -16.5 61t-34.5 47.5t-49 30.5t-59 11t-58.5 -11t-48.5 -30.5t-34 -47.5t-16 -61h316zM185 730h105l57 -110l-70 -22z" />
    <glyph glyph-name="uni0451" unicode="&#x451;" horiz-adv-x="595" 
d="M166 615v110h92v-110h-92zM343 615v110h92v-110h-92zM303 -10q-61 0 -111 21.5t-85.5 58.5t-55 86t-19.5 104t19.5 104.5t55 87t85.5 59t112 21.5q61 0 110.5 -22t84.5 -58.5t53.5 -85t18.5 -101.5q0 -12 -1 -22.5t-2 -17.5h-419q3 -35 16.5 -63t35 -48.5t49 -31.5
t57.5 -11q22 0 43.5 5.5t39.5 16t32 25.5t22 33l94 -27q-27 -59 -89.5 -96.5t-145.5 -37.5zM462 301q-3 33 -16.5 61t-34.5 47.5t-49 30.5t-59 11t-58.5 -11t-48.5 -30.5t-34 -47.5t-16 -61h316z" />
    <glyph glyph-name="uni0452" unicode="&#x452;" horiz-adv-x="601" 
d="M537 -11q0 -39 -13 -72t-36.5 -57t-55.5 -37.5t-69 -13.5q-35 0 -67.5 12t-55.5 33l49 74q23 -23 61 -23q33 0 55 22t22 54v273q0 71 -25.5 106t-71.5 35q-27 0 -51 -11.5t-44 -31t-34.5 -47t-22.5 -58.5v-247h-110v576h-74v74h74v80h110v-80h221v-74h-221v-212
q26 62 77.5 95.5t117.5 33.5q44 0 75 -15t51 -43t29 -67t9 -87v-292z" />
    <glyph glyph-name="uni0453" unicode="&#x453;" horiz-adv-x="429" 
d="M254 598l-72 22l57 110h105zM410 436h-234v-436h-108v523h342v-87z" />
    <glyph glyph-name="uni0454" unicode="&#x454;" horiz-adv-x="547" 
d="M301 -9q-62 0 -112 22t-85 59.5t-53.5 86.5t-18.5 103q0 53 18.5 102t53.5 86.5t85 60t113 22.5q78 0 132.5 -33.5t81.5 -84.5l-76 -50q-12 21 -28 36.5t-34.5 25t-38.5 14t-38 4.5q-32 0 -58.5 -11t-46.5 -30.5t-33 -45.5t-19 -55h230v-78h-231q5 -33 19 -60t34.5 -46.5
t47 -30t55.5 -10.5q40 0 80 21t60 62l85 -44q-12 -30 -34.5 -53.5t-52 -39.5t-64.5 -24.5t-72 -8.5z" />
    <glyph glyph-name="uni0455" unicode="&#x455;" horiz-adv-x="496" 
d="M256 -10q-63 0 -125.5 20.5t-107.5 58.5l44 70q47 -34 93 -51.5t94 -17.5q49 0 77.5 19t28.5 54q0 33 -32 48t-100 33q-49 13 -84 25t-57 28t-32 37t-10 51q0 40 15.5 71t43 52.5t64.5 32.5t80 11q59 0 110 -18t91 -52l-47 -66q-73 58 -155 58q-42 0 -70.5 -17.5
t-28.5 -55.5q0 -16 6 -27t19.5 -19t35 -14.5t53.5 -14.5q53 -13 91.5 -26t63.5 -30.5t37 -41t12 -56.5q0 -75 -56.5 -118.5t-153.5 -43.5z" />
    <glyph glyph-name="uni0456" unicode="&#x456;" horiz-adv-x="246" 
d="M68 0v523h110v-523h-110zM68 609v121h110v-121h-110z" />
    <glyph glyph-name="uni0457" unicode="&#x457;" horiz-adv-x="246" 
d="M-11 615v110h92v-110h-92zM166 615v110h92v-110h-92zM68 0v523h110v-523h-110z" />
    <glyph glyph-name="uni0458" unicode="&#x458;" horiz-adv-x="252" 
d="M12 -191q-36 0 -68 11t-58 34l49 74q13 -12 30 -17.5t34 -5.5q29 0 51.5 21.5t22.5 54.5v542h110v-534q0 -40 -13.5 -73t-37 -57t-54.5 -37t-66 -13zM73 609v121h110v-121h-110z" />
    <glyph glyph-name="uni0459" unicode="&#x459;" horiz-adv-x="818" 
d="M6 92q31 2 51 13.5t33.5 41.5t23 83t18.5 139l17 154h345v-194h129q33 0 63.5 -10.5t53.5 -31t36.5 -51.5t13.5 -72t-13.5 -72t-36 -51.5t-52.5 -30.5t-63 -10h-239v433h-139l-12 -96q-13 -101 -29.5 -166t-41 -103.5t-60 -54.5t-86.5 -18zM617 89q28 0 45 19t17 56
q0 38 -17.5 57.5t-43.5 19.5h-124v-152h123z" />
    <glyph glyph-name="uni045A" unicode="&#x45a;" horiz-adv-x="820" 
d="M68 523h108v-196h216v196h109v-194h124q33 0 63.5 -10.5t53.5 -31t36.5 -51.5t13.5 -72t-13.5 -72t-36 -51.5t-53 -30.5t-63.5 -10h-234v232h-216v-232h-108v523zM619 89q28 0 45 19t17 56q0 38 -17.5 57.5t-43.5 19.5h-119v-152h118z" />
    <glyph glyph-name="uni045B" unicode="&#x45b;" horiz-adv-x="600" 
d="M427 254q0 71 -25 106t-73 35q-52 0 -93 -39.5t-58 -105.5v-250h-110v576h-75v74h75v80h110v-80h221v-74h-221v-209q24 60 76 93t118 33q88 0 126.5 -57.5t38.5 -154.5v-281h-110v254z" />
    <glyph glyph-name="uni045C" unicode="&#x45c;" horiz-adv-x="519" 
d="M293 598l-72 22l57 110h105zM384 523h120l-205 -254l220 -269h-123l-171 216h-49v-216h-108v523h108v-218h41z" />
    <glyph glyph-name="uni045D" unicode="&#x45d;" horiz-adv-x="578" 
d="M176 156l268 367h84v-523h-108v359l-263 -359h-89v523h108v-367zM172 730h105l57 -110l-70 -22z" />
    <glyph glyph-name="uni045E" unicode="&#x45e;" horiz-adv-x="547" 
d="M91 -123q17 -5 28.5 -6t22.5 -1q10 0 18.5 2.5t18 15.5t20.5 39t25 73l-215 523h113l162 -426l144 426h104l-239 -644q-20 -54 -54.5 -79t-88.5 -25q-28 0 -59 7v95zM442 730q-2 -60 -45 -91t-113 -31t-113 31t-46 91h63q2 -40 26.5 -55.5t69.5 -15.5q44 0 68.5 15.5
t27.5 55.5h62z" />
    <glyph glyph-name="uni045F" unicode="&#x45f;" horiz-adv-x="556" 
d="M225 0h-157v524h108v-429h204v429h108v-524h-158v-157h-105v157z" />
    <glyph glyph-name="uni0490" unicode="&#x490;" horiz-adv-x="518" 
d="M83 710h324l7 164h89v-263h-308v-611h-112v710z" />
    <glyph glyph-name="uni0491" unicode="&#x491;" horiz-adv-x="428" 
d="M68 523h254l8 157h80v-247h-234v-433h-108v523z" />
    <glyph glyph-name="uni04B0" unicode="&#x4b0;" horiz-adv-x="621" 
d="M520 231v-73h-153v-158h-113v158h-152v73h152v25l-262 454h124l196 -356l197 356h121l-263 -452v-27h153z" />
    <glyph glyph-name="uni04B1" unicode="&#x4b1;" horiz-adv-x="541" 
d="M216 0h-144v73h141v4l-214 446h122l150 -351l154 351h117l-217 -446v-4h143v-73h-146v-213h-106v213z" />
    <glyph glyph-name="Ddotbelow" unicode="&#x1e0c;" horiz-adv-x="716" 
d="M290 -189v116h99v-116h-99zM80 0v710h252q86 0 150.5 -28t108 -76t65.5 -112.5t22 -137.5q0 -81 -24.5 -146.5t-69.5 -112t-109 -72t-143 -25.5h-252zM564 356q0 56 -15.5 103t-45.5 80.5t-73 52.5t-98 19h-140v-512h140q56 0 99.5 19.5t73 54t44.5 81.5t15 102z" />
    <glyph glyph-name="ddotbelow" unicode="&#x1e0d;" horiz-adv-x="637" 
d="M262 -189v116h99v-116h-99zM279 -10q-53 0 -98 21.5t-78 58.5t-51.5 86.5t-18.5 106.5q0 55 17.5 103.5t49 85.5t74 58.5t93.5 21.5q63 0 111 -30.5t75 -77.5v306h110v-600q0 -19 6.5 -27t23.5 -9v-94q-17 -3 -27.5 -4t-17.5 -1q-33 0 -54 17t-23 44l-2 39
q-29 -49 -79 -77t-111 -28zM306 84q24 0 48 8t44 22t34.5 33t20.5 41v137q-9 25 -25.5 46t-37.5 36t-44.5 23t-47.5 8q-33 0 -60.5 -15t-47.5 -40t-31.5 -57t-11.5 -66q0 -36 12.5 -68t34.5 -56t50.5 -38t61.5 -14z" />
    <glyph glyph-name="Hdotbelow" unicode="&#x1e24;" horiz-adv-x="743" 
d="M663 710v-710h-113v313h-358v-313h-112v710h112v-297h358v297h113zM321 -189v116h99v-116h-99z" />
    <glyph glyph-name="hdotbelow" unicode="&#x1e25;" horiz-adv-x="597" 
d="M535 0h-110v293q0 72 -25.5 106.5t-73.5 34.5q-23 0 -46 -9t-43.5 -25.5t-36.5 -39t-24 -49.5v-311h-110v730h110v-312q30 54 81.5 84t112.5 30q49 0 80.5 -17.5t50.5 -46.5t26.5 -67.5t7.5 -81.5v-319zM253 -189v116h99v-116h-99z" />
    <glyph glyph-name="Ndotaccent" unicode="&#x1e44;" horiz-adv-x="767" 
d="M334 800v115h99v-115h-99zM192 500v-500h-112v710h88l406 -512v511h113v-709h-93z" />
    <glyph glyph-name="ndotaccent" unicode="&#x1e45;" horiz-adv-x="597" 
d="M260 615v115h99v-115h-99zM535 0h-110v293q0 74 -23.5 107.5t-69.5 33.5q-24 0 -48 -9t-45 -25.5t-37.5 -39t-25.5 -49.5v-311h-110v523h100v-105q30 53 87 83.5t126 30.5q47 0 77 -17t47.5 -46.5t24.5 -68t7 -81.5v-319z" />
    <glyph glyph-name="Rdotbelow" unicode="&#x1e5a;" horiz-adv-x="661" 
d="M80 0v710h309q48 0 88.5 -20t69.5 -52.5t45.5 -74t16.5 -84.5q0 -36 -10 -69t-28 -61t-44 -48.5t-57 -30.5l167 -270h-127l-154 247h-164v-247h-112zM192 346h196q24 0 43.5 10.5t33.5 29t22 42.5t8 51t-9.5 51t-25 42t-36 28.5t-42.5 10.5h-190v-265zM282 -189v116h99
v-116h-99z" />
    <glyph glyph-name="rdotbelow" unicode="&#x1e5b;" horiz-adv-x="374" 
d="M360 428q-64 -2 -113.5 -29.5t-70.5 -78.5v-320h-110v523h102v-117q27 54 70.5 86.5t93.5 35.5h17q6 0 11 -1v-99zM72 -189v116h99v-116h-99z" />
    <glyph glyph-name="Sdotbelow" unicode="&#x1e62;" horiz-adv-x="611" 
d="M500 543q-10 11 -29 23.5t-44.5 23.5t-56 18t-62.5 7q-71 0 -104.5 -26t-33.5 -72q0 -26 10.5 -42.5t32.5 -29t55 -22t77 -20.5q54 -13 97.5 -29t73.5 -39t46.5 -56.5t16.5 -81.5q0 -54 -20.5 -93t-56 -63.5t-82.5 -36t-101 -11.5q-81 0 -156.5 24.5t-136.5 71.5l51 96
q13 -13 37.5 -29t57 -29.5t70.5 -23t79 -9.5q66 0 102 23t36 68q0 27 -13.5 45t-38.5 31.5t-61 24.5t-82 23q-53 14 -92.5 29.5t-65.5 37.5t-39.5 51.5t-13.5 71.5q0 52 20 92.5t54.5 68t81.5 41.5t102 14q72 0 133 -23t107 -57zM254 -189v116h99v-116h-99z" />
    <glyph glyph-name="sdotbelow" unicode="&#x1e63;" horiz-adv-x="496" 
d="M256 -10q-63 0 -125.5 20.5t-107.5 58.5l44 70q47 -34 93 -51.5t94 -17.5q49 0 77.5 19t28.5 54q0 33 -32 48t-100 33q-49 13 -84 25t-57 28t-32 37t-10 51q0 40 15.5 71t43 52.5t64.5 32.5t80 11q59 0 110 -18t91 -52l-47 -66q-73 58 -155 58q-42 0 -70.5 -17.5
t-28.5 -55.5q0 -16 6 -27t19.5 -19t35 -14.5t53.5 -14.5q53 -13 91.5 -26t63.5 -30.5t37 -41t12 -56.5q0 -75 -56.5 -118.5t-153.5 -43.5zM197 -189v116h99v-116h-99z" />
    <glyph glyph-name="Tdotbelow" unicode="&#x1e6c;" horiz-adv-x="616" 
d="M256 -189v116h99v-116h-99zM601 611h-236v-611h-113v611h-237v99h586v-99z" />
    <glyph glyph-name="tdotbelow" unicode="&#x1e6d;" horiz-adv-x="367" 
d="M165 -189v116h99v-116h-99zM357 27q-21 -10 -58 -22.5t-79 -12.5q-26 0 -49 7t-40.5 21t-27.5 36.5t-10 54.5v327h-69v85h69v172h110v-172h114v-85h-114v-292q2 -28 17.5 -40.5t38.5 -12.5t44 8t31 13z" />
    <glyph glyph-name="Wgrave" unicode="&#x1e80;" horiz-adv-x="1051" 
d="M332 707h106l87 -241l88 241h105l-121 -316l106 -261l221 580h123l-293 -710h-96l-132 318l-133 -318h-96l-293 710h122l222 -580l106 261zM409 917h105l57 -110l-70 -22z" />
    <glyph glyph-name="wgrave" unicode="&#x1e81;" horiz-adv-x="830" 
d="M718 523h105l-220 -523h-91l-97 243l-97 -243h-91l-221 523h105l169 -417l76 194l-91 222h90l60 -164l59 164h90l-90 -222l76 -194zM300 730h105l57 -110l-70 -22z" />
    <glyph glyph-name="Wacute" unicode="&#x1e82;" horiz-adv-x="1051" 
d="M549 784l-72 22l57 110h105zM332 707h106l87 -241l88 241h105l-121 -316l106 -261l221 580h123l-293 -710h-96l-132 318l-133 -318h-96l-293 710h122l222 -580l106 261z" />
    <glyph glyph-name="wacute" unicode="&#x1e83;" horiz-adv-x="830" 
d="M439 598l-72 22l57 110h105zM718 523h105l-220 -523h-91l-97 243l-97 -243h-91l-221 523h105l169 -417l76 194l-91 222h90l60 -164l59 164h90l-90 -222l76 -194z" />
    <glyph glyph-name="Wdieresis" unicode="&#x1e84;" horiz-adv-x="1051" 
d="M391 802v110h92v-110h-92zM568 802v110h92v-110h-92zM332 707h106l87 -241l88 241h105l-121 -316l106 -261l221 580h123l-293 -710h-96l-132 318l-133 -318h-96l-293 710h122l222 -580l106 261z" />
    <glyph glyph-name="wdieresis" unicode="&#x1e85;" horiz-adv-x="830" 
d="M280 615v110h92v-110h-92zM457 615v110h92v-110h-92zM718 523h105l-220 -523h-91l-97 243l-97 -243h-91l-221 523h105l169 -417l76 194l-91 222h90l60 -164l59 164h90l-90 -222l76 -194z" />
    <glyph glyph-name="Zdotbelow" unicode="&#x1e92;" horiz-adv-x="629" 
d="M31 86l431 525h-421v99h552v-86l-421 -525h422v-99h-563v86zM273 -189v116h99v-116h-99z" />
    <glyph glyph-name="zdotbelow" unicode="&#x1e93;" horiz-adv-x="493" 
d="M28 69l314 376h-303v78h419v-69l-312 -376h315v-78h-433v69zM194 -189v116h99v-116h-99z" />
    <glyph glyph-name="Edotbelow" unicode="&#x1eb8;" horiz-adv-x="603" 
d="M567 99v-99h-487v710h478v-99h-366v-202h317v-93h-317v-217h375zM270 -189v116h99v-116h-99z" />
    <glyph glyph-name="edotbelow" unicode="&#x1eb9;" horiz-adv-x="595" 
d="M303 -10q-61 0 -111 21.5t-85.5 58.5t-55 86t-19.5 104t19.5 104.5t55 87t85.5 59t112 21.5q61 0 110.5 -22t84.5 -58.5t53.5 -85t18.5 -101.5q0 -12 -1 -22.5t-2 -17.5h-419q3 -35 16.5 -63t35 -48.5t49 -31.5t57.5 -11q22 0 43.5 5.5t39.5 16t32 25.5t22 33l94 -27
q-27 -59 -89.5 -96.5t-145.5 -37.5zM462 301q-3 33 -16.5 61t-34.5 47.5t-49 30.5t-59 11t-58.5 -11t-48.5 -30.5t-34 -47.5t-16 -61h316zM254 -189v116h99v-116h-99z" />
    <glyph glyph-name="Etilde" unicode="&#x1ebc;" horiz-adv-x="603" 
d="M567 99v-99h-487v710h478v-99h-366v-202h317v-93h-317v-217h375zM393 801q-23 0 -40 6.5t-31.5 15t-28.5 15t-30 6.5q-17 0 -26.5 -7t-14.5 -15.5t-6.5 -16.5t-1.5 -9h-62q0 8 5 27t17.5 38.5t33 34.5t51.5 15q22 0 38.5 -7t31 -15t29 -15t32.5 -7t29 7t16.5 16t7 16.5
t1.5 9.5h63q0 -6 -5.5 -25t-18.5 -39t-35 -35.5t-55 -15.5z" />
    <glyph glyph-name="etilde" unicode="&#x1ebd;" horiz-adv-x="595" 
d="M303 -10q-61 0 -111 21.5t-85.5 58.5t-55 86t-19.5 104t19.5 104.5t55 87t85.5 59t112 21.5q61 0 110.5 -22t84.5 -58.5t53.5 -85t18.5 -101.5q0 -12 -1 -22.5t-2 -17.5h-419q3 -35 16.5 -63t35 -48.5t49 -31.5t57.5 -11q22 0 43.5 5.5t39.5 16t32 25.5t22 33l94 -27
q-27 -59 -89.5 -96.5t-145.5 -37.5zM462 301q-3 33 -16.5 61t-34.5 47.5t-49 30.5t-59 11t-58.5 -11t-48.5 -30.5t-34 -47.5t-16 -61h316zM363 615q-23 0 -40 6.5t-31.5 15t-28.5 15t-30 6.5q-17 0 -26.5 -7t-14.5 -15.5t-6.5 -16.5t-1.5 -9h-62q0 8 5 27t17.5 38.5t33 34.5
t51.5 15q22 0 38.5 -7t31 -15t29 -15t32.5 -7t29 7t16.5 16t7 16.5t1.5 9.5h63q0 -6 -5.5 -25t-18.5 -39t-35 -35.5t-55 -15.5z" />
    <glyph glyph-name="Idotbelow" unicode="&#x1eca;" horiz-adv-x="272" 
d="M80 0v710h112v-710h-112zM84 -189v116h99v-116h-99z" />
    <glyph glyph-name="idotbelow" unicode="&#x1ecb;" horiz-adv-x="242" 
d="M66 0v523h110v-523h-110zM66 609v121h110v-121h-110zM70 -189v116h99v-116h-99z" />
    <glyph glyph-name="Odotbelow" unicode="&#x1ecc;" 
d="M325 -189v116h99v-116h-99zM375 -5q-76 0 -138.5 30.5t-107.5 81t-69.5 115.5t-24.5 133q0 71 26 136t71.5 115t108 79.5t136.5 29.5q76 0 138.5 -31.5t107 -82.5t69 -115.5t24.5 -131.5q0 -71 -25.5 -136t-71.5 -114.5t-108.5 -79t-135.5 -29.5zM149 355q0 -50 16 -97
t45.5 -83t71.5 -57.5t94 -21.5q54 0 95.5 22.5t70.5 59.5t44 83t15 94q0 51 -16 97.5t-45.5 82t-71 57t-92.5 21.5q-54 0 -96 -22.5t-71 -58.5t-44.5 -82.5t-15.5 -94.5z" />
    <glyph glyph-name="odotbelow" unicode="&#x1ecd;" horiz-adv-x="602" 
d="M252 -189v116h99v-116h-99zM301 -10q-62 0 -111.5 22t-84.5 59t-54 86.5t-19 103.5t19 103.5t54.5 86.5t85 59t110.5 22t110.5 -22t85 -59t54.5 -86.5t19 -103.5t-19 -103.5t-54.5 -86.5t-85 -59t-110.5 -22zM145 260q0 -38 12 -70t33 -55.5t49.5 -37t61.5 -13.5
t61.5 13.5t49.5 37.5t33 56t12 70q0 37 -12 69.5t-33 56.5t-49.5 37.5t-61.5 13.5q-32 0 -60.5 -14t-49.5 -38t-33.5 -56.5t-12.5 -69.5z" />
    <glyph glyph-name="Udotbelow" unicode="&#x1ee4;" 
d="M376 96q56 0 93 22t59.5 57.5t32 81t9.5 93.5v360h113v-360q0 -73 -17 -137.5t-54 -113t-95.5 -76.5t-140.5 -28q-85 0 -143.5 29.5t-94.5 79t-52 113.5t-16 133v360h112v-360q0 -49 9.5 -94.5t32 -81t60 -57t92.5 -21.5zM327 -189v116h99v-116h-99z" />
    <glyph glyph-name="udotbelow" unicode="&#x1ee5;" horiz-adv-x="609" 
d="M227 -10q-82 0 -124 53.5t-42 159.5v320h110v-298q0 -141 100 -141q47 0 89 29t65 84v326h110v-393q0 -19 6.5 -27t23.5 -9v-94q-17 -3 -28 -4t-21 -1q-30 0 -51 16.5t-22 42.5l-2 52q-35 -57 -91 -86.5t-123 -29.5zM242 -189v116h99v-116h-99z" />
    <glyph glyph-name="Ygrave" unicode="&#x1ef2;" horiz-adv-x="657" 
d="M132 710l196 -356l198 356h123l-265 -456v-254h-112v256l-263 454h123zM212 917h105l57 -110l-70 -22z" />
    <glyph glyph-name="ygrave" unicode="&#x1ef3;" horiz-adv-x="547" 
d="M84 -123q15 -3 29.5 -5t23.5 -2q13 0 22.5 5.5t19.5 19.5t20.5 39.5t24.5 65.5l-215 523h113l162 -426l144 426h104l-237 -644q-16 -45 -55.5 -75.5t-101.5 -30.5q-12 0 -25 1.5t-29 6.5v96zM168 730h105l57 -110l-70 -22z" />
    <glyph glyph-name="Ytilde" unicode="&#x1ef8;" horiz-adv-x="657" 
d="M132 710l196 -356l198 356h123l-265 -456v-254h-112v256l-263 454h123zM391 801q-23 0 -40 6.5t-31.5 15t-28.5 15t-30 6.5q-17 0 -26.5 -7t-14.5 -15.5t-6.5 -16.5t-1.5 -9h-62q0 8 5 27t17.5 38.5t33 34.5t51.5 15q22 0 38.5 -7t31 -15t29 -15t32.5 -7t29 7t16.5 16
t7 16.5t1.5 9.5h63q0 -6 -5.5 -25t-18.5 -39t-35 -35.5t-55 -15.5z" />
    <glyph glyph-name="ytilde" unicode="&#x1ef9;" horiz-adv-x="547" 
d="M84 -123q15 -3 29.5 -5t23.5 -2q13 0 22.5 5.5t19.5 19.5t20.5 39.5t24.5 65.5l-215 523h113l162 -426l144 426h104l-237 -644q-16 -45 -55.5 -75.5t-101.5 -30.5q-12 0 -25 1.5t-29 6.5v96zM346 615q-23 0 -40 6.5t-31.5 15t-28.5 15t-30 6.5q-17 0 -26.5 -7
t-14.5 -15.5t-6.5 -16.5t-1.5 -9h-62q0 8 5 27t17.5 38.5t33 34.5t51.5 15q22 0 38.5 -7t31 -15t29 -15t32.5 -7t29 7t16.5 16t7 16.5t1.5 9.5h63q0 -6 -5.5 -25t-18.5 -39t-35 -35.5t-55 -15.5z" />
    <glyph glyph-name="uni2000" unicode="&#x2000;" horiz-adv-x="463" 
 />
    <glyph glyph-name="uni2001" unicode="&#x2001;" horiz-adv-x="927" 
 />
    <glyph glyph-name="enspace" unicode="&#x2002;" horiz-adv-x="594" 
 />
    <glyph glyph-name="emspace" unicode="&#x2003;" horiz-adv-x="924" 
 />
    <glyph glyph-name="uni2004" unicode="&#x2004;" horiz-adv-x="309" 
 />
    <glyph glyph-name="uni2005" unicode="&#x2005;" horiz-adv-x="231" 
 />
    <glyph glyph-name="uni2006" unicode="&#x2006;" horiz-adv-x="154" 
 />
    <glyph glyph-name="uni2007" unicode="&#x2007;" horiz-adv-x="154" 
 />
    <glyph glyph-name="uni2008" unicode="&#x2008;" horiz-adv-x="115" 
 />
    <glyph glyph-name="uni2009" unicode="&#x2009;" horiz-adv-x="185" 
 />
    <glyph glyph-name="uni200A" unicode="&#x200a;" horiz-adv-x="51" 
 />
    <glyph glyph-name="uni2010" unicode="&#x2010;" horiz-adv-x="421" 
d="M61 224v99h299v-99h-299z" />
    <glyph glyph-name="uni2011" unicode="&#x2011;" horiz-adv-x="421" 
d="M61 224v99h299v-99h-299z" />
    <glyph glyph-name="figuredash" unicode="&#x2012;" horiz-adv-x="421" 
d="M61 224v99h299v-99h-299z" />
    <glyph glyph-name="endash" unicode="&#x2013;" horiz-adv-x="592" 
d="M61 224v99h470v-99h-470z" />
    <glyph glyph-name="emdash" unicode="&#x2014;" horiz-adv-x="919" 
d="M61 224v99h797v-99h-797z" />
    <glyph glyph-name="quoteleft" unicode="&#x2018;" horiz-adv-x="226" 
d="M153 730l-21 -118h35v-124h-108v125l33 117h61z" />
    <glyph glyph-name="quoteright" unicode="&#x2019;" horiz-adv-x="218" 
d="M71 491l21 118h-35v124h108v-125l-33 -117h-61z" />
    <glyph glyph-name="quotesinglbase" unicode="&#x201a;" horiz-adv-x="230" 
d="M74 -123l22 123h-35v129h108v-130l-33 -122h-62z" />
    <glyph glyph-name="quotedblleft" unicode="&#x201c;" horiz-adv-x="387" 
d="M153 730l-21 -118h35v-124h-108v125l33 117h61zM315 730l-21 -118h35v-124h-108v125l33 117h61z" />
    <glyph glyph-name="quotedblright" unicode="&#x201d;" horiz-adv-x="380" 
d="M71 491l21 118h-35v124h108v-125l-33 -117h-61zM233 491l21 118h-35v124h108v-125l-33 -117h-61z" />
    <glyph glyph-name="quotedblbase" unicode="&#x201e;" horiz-adv-x="389" 
d="M74 -123l22 123h-35v129h108v-130l-33 -122h-62zM234 -123l21 123h-35v129h108v-130l-33 -122h-61z" />
    <glyph glyph-name="dagger" unicode="&#x2020;" horiz-adv-x="440" 
d="M168 -130v351h-132v100h132v454h105v-454h131v-100h-131v-351h-105z" />
    <glyph glyph-name="daggerdbl" unicode="&#x2021;" horiz-adv-x="448" 
d="M172 -130v253h-132v99h132v112h-132v99h132v342h105v-342h131v-99h-131v-112h131v-99h-131v-253h-105z" />
    <glyph glyph-name="bullet" unicode="&#x2022;" horiz-adv-x="359" 
d="M278 348q0 -42 -28.5 -70.5t-69.5 -28.5q-20 0 -38 7.5t-31.5 21t-21.5 31.5t-8 39q0 20 8 38t21.5 31.5t31.5 21.5t38 8t38 -8t31.5 -21.5t21 -31.5t7.5 -38z" />
    <glyph glyph-name="ellipsis" unicode="&#x2026;" horiz-adv-x="550" 
d="M61 0v128h91v-128h-91zM230 0v128h90v-128h-90zM398 0v128h91v-128h-91z" />
    <glyph glyph-name="uni202F" unicode="&#x202f;" horiz-adv-x="185" 
 />
    <glyph glyph-name="perthousand" unicode="&#x2030;" horiz-adv-x="1131" 
d="M201 423q-33 0 -62.5 11.5t-51 31.5t-34 47t-12.5 58t12.5 58t34 47.5t51 32t62.5 11.5t62 -11.5t50.5 -32t34 -47.5t12.5 -58t-12.5 -58t-34 -47t-50.5 -31.5t-62 -11.5zM201 480q16 0 31 7.5t26 20t17.5 29t6.5 34.5q0 19 -6.5 36t-18 29.5t-26 19.5t-30.5 7
q-34 0 -57.5 -27.5t-23.5 -64.5q0 -19 6.5 -35.5t17.5 -29t25.5 -19.5t31.5 -7zM568 -10q-33 0 -62 11.5t-50.5 32t-34 47.5t-12.5 58t12.5 58t34 47t50.5 31.5t62 11.5q34 0 63 -11.5t50.5 -31.5t34 -47t12.5 -58t-12.5 -58t-34 -47.5t-50.5 -32t-63 -11.5zM568 47
q34 0 57.5 27t23.5 65q0 19 -6.5 35.5t-17.5 29t-26 19.5t-31 7q-17 0 -31.5 -7.5t-25 -20t-17 -29t-6.5 -34.5q0 -19 6.5 -36t17 -29.5t25 -19.5t31.5 -7zM939 -10q-33 0 -62 11.5t-50.5 32t-34 47.5t-12.5 58t12.5 58t34 47t50.5 31.5t62 11.5t62 -11.5t50.5 -31.5t34 -47
t12.5 -58t-12.5 -58t-34 -47.5t-50.5 -32t-62 -11.5zM939 47q34 0 57.5 27t23.5 65q0 19 -6.5 35.5t-18 29t-26 19.5t-30.5 7q-17 0 -31.5 -7.5t-25.5 -20t-17.5 -29t-6.5 -34.5q0 -19 6.5 -36t17.5 -29.5t25.5 -19.5t31.5 -7zM86 40l281 333l264 343l52 -45l-276 -329
l-270 -348z" />
    <glyph glyph-name="guilsinglleft" unicode="&#x2039;" horiz-adv-x="356" 
d="M38 284l258 185v-91l-170 -119l170 -115v-90l-258 175v55z" />
    <glyph glyph-name="guilsinglright" unicode="&#x203a;" horiz-adv-x="356" 
d="M318 229l-258 -175v90l170 115l-170 119v91l258 -185v-55z" />
    <glyph glyph-name="fraction" unicode="&#x2044;" horiz-adv-x="184" 
d="M-207 40l281 333l264 343l52 -45l-276 -329l-270 -348z" />
    <glyph glyph-name="uni205F" unicode="&#x205f;" horiz-adv-x="231" 
 />
    <glyph glyph-name="zerosuperior" unicode="&#x2070;" horiz-adv-x="476" 
d="M239 394q-51 0 -89.5 19.5t-64 50t-38.5 67t-13 71.5q0 37 14 74.5t40.5 67.5t64.5 49t86 19q50 0 88.5 -20t64 -51t38.5 -68t13 -71q0 -38 -14 -75t-40.5 -66.5t-64.5 -48t-85 -18.5zM103 602q0 -25 8.5 -50t25.5 -45.5t42.5 -33.5t59.5 -13q35 0 60.5 14t42.5 35t25 46
t8 47q0 25 -9 51t-26.5 46.5t-42.5 33.5t-58 13q-35 0 -61 -14t-42.5 -35t-24.5 -46.5t-8 -48.5z" />
    <glyph glyph-name="foursuperior" unicode="&#x2074;" horiz-adv-x="400" 
d="M246 400v95h-224v65l244 252h46v-251h60v-66h-60v-95h-66zM89 561h159v167z" />
    <glyph glyph-name="fivesuperior" unicode="&#x2075;" horiz-adv-x="387" 
d="M198 665q34 0 63 -9.5t50.5 -27t34 -42t12.5 -53.5q0 -31 -13.5 -56.5t-37 -44t-55.5 -28.5t-69 -10q-51 0 -93 19.5t-63 53.5l41 43q20 -24 50.5 -38t68.5 -14q43 0 72.5 20t29.5 57q0 20 -8.5 35t-22.5 24.5t-31 14.5t-34 5q-29 0 -55.5 -13t-40.5 -33h-59q4 24 12 58
l16 68l16 66q8 32 11 52h236v-66h-187l-27 -103q14 10 35 16t48 6z" />
    <glyph glyph-name="sixsuperior" unicode="&#x2076;" horiz-adv-x="416" 
d="M386 533q0 -30 -13.5 -56t-37 -45.5t-55.5 -30.5t-69 -11q-79 0 -127 49t-48 138q0 115 50 175t135 60q45 0 83 -17.5t61 -49.5l-39 -45q-15 22 -44 35.5t-64 13.5q-54 0 -86 -33.5t-34 -93.5q16 23 49 36t68 13q37 0 68.5 -10.5t54 -29t35.5 -44t13 -54.5zM213 451
q22 0 42 6.5t35 18t23.5 26t8.5 31.5q0 16 -8.5 31t-23.5 25.5t-35 17t-43 6.5t-43 -6.5t-35 -17t-23.5 -25.5t-8.5 -31q0 -17 9 -31.5t24 -26t35 -18t43 -6.5z" />
    <glyph glyph-name="sevensuperior" unicode="&#x2077;" horiz-adv-x="376" 
d="M267 746h-242v66h348l-244 -412h-75z" />
    <glyph glyph-name="eightsuperior" unicode="&#x2078;" horiz-adv-x="412" 
d="M377 518q0 -27 -14 -50t-37.5 -39.5t-54.5 -25.5t-66 -9q-36 0 -67.5 10t-54.5 27t-36 40t-13 49q0 39 26.5 62.5t61.5 37.5q-29 11 -50.5 31t-21.5 51q0 25 14 45.5t36 34.5t50 22t56 8t55.5 -7.5t49.5 -22t36 -34.5t14 -45q0 -30 -20.5 -51t-51.5 -32q38 -14 63 -39.5
t25 -62.5zM310 525q0 15 -9 27.5t-24 20.5t-33.5 12.5t-37.5 4.5q-20 0 -39 -4.5t-33.5 -13t-23 -20.5t-8.5 -27t9.5 -27.5t24.5 -20.5t33.5 -12.5t37.5 -4.5t37.5 4.5t33 13t23.5 20.5t9 27zM117 697q0 -12 8 -21.5t20.5 -16t28.5 -10t32 -3.5q15 0 31 3.5t29 10t21 16
t8 21.5t-7.5 21.5t-20 16t-28.5 10t-33 3.5q-35 0 -62 -14t-27 -37z" />
    <glyph glyph-name="ninesuperior" unicode="&#x2079;" horiz-adv-x="416" 
d="M30 668q0 30 13.5 56.5t37 46t55 30.5t68.5 11q79 0 127.5 -49.5t48.5 -137.5q0 -116 -49.5 -175.5t-134.5 -59.5q-46 0 -84.5 17.5t-61.5 49.5l40 45q15 -23 44 -36t64 -13q53 0 85.5 33.5t33.5 93.5q-15 -23 -48.5 -36.5t-68.5 -13.5q-37 0 -68 10.5t-53.5 29.5
t-35.5 44t-13 54zM203 751q-23 0 -42.5 -6.5t-34.5 -18t-23.5 -26.5t-8.5 -31q0 -17 8.5 -31.5t23.5 -25t35 -17t43 -6.5q22 0 42 6.5t35 17t23.5 25t8.5 30.5q0 17 -9 32t-24 26.5t-35 18t-42 6.5z" />
    <glyph glyph-name="zeroinferior" unicode="&#x2080;" horiz-adv-x="476" 
d="M239 -87q-51 0 -89.5 19.5t-64 50t-38.5 67.5t-13 72q0 37 14 74.5t40.5 67.5t64.5 48.5t86 18.5q50 0 88.5 -20t64 -51t38.5 -67.5t13 -70.5q0 -38 -14 -75.5t-40.5 -67t-64.5 -48t-85 -18.5zM103 122q0 -25 8.5 -50.5t25.5 -46t42.5 -33.5t59.5 -13q35 0 60.5 14
t42.5 35t25 46t8 48q0 25 -9 50.5t-26.5 46t-42.5 33.5t-58 13q-35 0 -61 -14t-42.5 -35t-24.5 -46.5t-8 -47.5z" />
    <glyph glyph-name="oneinferior" unicode="&#x2081;" horiz-adv-x="316" 
d="M297 -17v-65h-248v65h93v279q-6 -7 -18.5 -15.5t-28 -16t-32 -13t-30.5 -5.5v67q18 0 37 8.5t35 19t26.5 19.5t10.5 10h68v-353h87z" />
    <glyph glyph-name="twoinferior" unicode="&#x2082;" horiz-adv-x="410" 
d="M32 -82q0 40 7 70t23 52.5t40.5 39.5t59.5 31l46 17q24 9 43.5 20t31.5 25.5t12 35.5q0 28 -23.5 45t-68.5 17q-46 0 -76.5 -17.5t-47.5 -34.5l-43 49q6 8 20.5 20t37 22.5t52.5 18t67 7.5q78 0 117.5 -34.5t39.5 -93.5q0 -32 -13.5 -54t-33.5 -37t-43.5 -24t-43.5 -15
q-56 -18 -76 -44t-20 -51h231v-65h-339z" />
    <glyph glyph-name="threeinferior" unicode="&#x2083;" horiz-adv-x="401" 
d="M191 -87q-63 0 -106 21t-55 61l37 48q7 -21 39 -42.5t84 -21.5q45 0 76 15.5t31 43.5q0 31 -40 47t-109 16h-23v61h23q62 0 98.5 13.5t36.5 43.5q0 13 -8 23.5t-21 18t-30 11t-34 3.5q-41 0 -69 -14.5t-45 -37.5l-44 53q21 29 65 44.5t93 15.5q35 0 65 -8.5t52 -23.5
t34.5 -36t12.5 -45q0 -35 -24 -57.5t-69 -31.5q48 -7 76 -36.5t28 -69.5q0 -29 -14.5 -50.5t-38.5 -36t-55.5 -21.5t-65.5 -7z" />
    <glyph glyph-name="fourinferior" unicode="&#x2084;" horiz-adv-x="400" 
d="M246 -82v96h-224v65l244 252h46v-251h60v-66h-60v-96h-66zM89 80h159v167z" />
    <glyph glyph-name="fiveinferior" unicode="&#x2085;" horiz-adv-x="387" 
d="M198 184q34 0 63 -9.5t50.5 -27t33.5 -42t12 -54.5q0 -31 -13.5 -56.5t-36.5 -43.5t-55 -28t-69 -10q-51 0 -93 19.5t-63 52.5l41 43q19 -23 50 -37.5t69 -14.5q43 0 72.5 20.5t29.5 57.5q0 20 -8.5 35t-22.5 24.5t-31.5 14.5t-34.5 5q-28 0 -54.5 -13t-40.5 -33h-59
q4 24 12 58l16 68l16 67q8 31 11 51h235v-66h-186l-27 -103q14 10 35 16t48 6z" />
    <glyph glyph-name="sixinferior" unicode="&#x2086;" horiz-adv-x="417" 
d="M387 56q0 -30 -13.5 -56t-37 -45.5t-55.5 -30.5t-69 -11q-79 0 -127 48.5t-48 138.5q0 115 49.5 174.5t134.5 59.5q46 0 84 -17t61 -49l-40 -46q-14 23 -43.5 36t-63.5 13q-54 0 -86.5 -33t-33.5 -94q16 23 49 36.5t68 13.5q37 0 68.5 -10.5t54 -29.5t35.5 -44t13 -54z
M214 -27q22 0 42 6.5t35 18t23.5 26t8.5 31.5q0 34 -32 57.5t-78 23.5q-23 0 -43 -6.5t-35 -17t-23.5 -25.5t-8.5 -31q0 -17 9 -32t24 -26.5t35 -18t43 -6.5z" />
    <glyph glyph-name="seveninferior" unicode="&#x2087;" horiz-adv-x="376" 
d="M268 265h-243v66h348l-244 -413h-75z" />
    <glyph glyph-name="eightinferior" unicode="&#x2088;" horiz-adv-x="412" 
d="M377 37q0 -27 -14 -50t-37.5 -39.5t-54.5 -25.5t-66 -9q-36 0 -67.5 10t-54.5 27t-36 40t-13 49q0 39 26.5 63t61.5 38q-29 11 -50.5 30.5t-21.5 50.5q0 25 14 45.5t36 34.5t50 22t56 8t55.5 -7.5t49.5 -22t36 -34.5t14 -45q0 -29 -20.5 -50t-51.5 -32q38 -15 63 -40
t25 -63zM310 44q0 15 -9 27.5t-24 20.5t-33.5 12.5t-37.5 4.5q-20 0 -39 -4.5t-33.5 -13.5t-23 -21t-8.5 -27t9.5 -27t24.5 -20t33.5 -12.5t37.5 -4.5t37.5 4.5t33 13t23.5 20.5t9 27zM117 215q0 -12 8 -21.5t20.5 -16t28.5 -10t32 -3.5q15 0 31 3.5t29 10t21 16.5t8 22
t-7.5 21t-20 16t-28.5 10.5t-33 3.5q-35 0 -62 -14t-27 -38z" />
    <glyph glyph-name="nineinferior" unicode="&#x2089;" horiz-adv-x="417" 
d="M30 191q0 30 13.5 56t37 45.5t55.5 30.5t69 11q79 0 127.5 -49t48.5 -138q0 -115 -50 -174.5t-135 -59.5q-45 0 -83.5 17t-61.5 49l40 46q15 -23 44 -36t64 -13q53 0 85.5 33t33.5 93q-15 -23 -48.5 -36.5t-69.5 -13.5t-67.5 10.5t-54 29.5t-35.5 44.5t-13 54.5zM204 273
q-23 0 -43 -6.5t-35 -18t-23.5 -26.5t-8.5 -31q0 -17 9 -31.5t24 -25t35 -17t43 -6.5q22 0 42 6.5t35 17t23.5 25t8.5 31.5q0 16 -9 31t-24 26.5t-35 18t-42 6.5z" />
    <glyph glyph-name="colonmonetary" unicode="&#x20a1;" horiz-adv-x="563" 
d="M219 3q-43 13 -77 39t-58 60t-36.5 75t-12.5 85q0 45 12.5 86t36.5 74.5t58 58.5t77 38v126h53v-115q8 1 16 1.5t17 0.5q7 0 13.5 -0.5t13.5 -0.5v114h53v-124q51 -14 88.5 -45t59.5 -74l-107 -34q-19 33 -51 51.5t-72 18.5q-33 0 -61 -13t-49 -36.5t-33 -55.5t-12 -71
q0 -38 12.5 -70.5t33.5 -56.5t49.5 -37.5t60.5 -13.5q21 0 40.5 5.5t36.5 15.5t29.5 23t18.5 28l107 -32q-19 -44 -58 -76.5t-93 -47.5v-120h-53v111q-7 0 -13 -0.5t-13 -0.5q-9 0 -17.5 0.5t-16.5 1.5v-112h-53v123z" />
    <glyph glyph-name="franc" unicode="&#x20a3;" horiz-adv-x="611" 
d="M116 0v116h-86v79h86v515h473v-99h-360v-212h301v-93h-301v-111h115v-79h-115v-116h-113z" />
    <glyph glyph-name="lira" unicode="&#x20a4;" horiz-adv-x="516" 
d="M48 417h68q-16 29 -27.5 59t-11.5 64q0 36 15.5 68t42.5 56t63 37.5t77 13.5q58 0 110 -28t87 -77l-59 -68q-24 38 -63 60.5t-77 22.5q-42 0 -69 -27t-27 -68q0 -29 12.5 -56.5t28.5 -56.5h186v-67h-156q9 -26 12 -53h144v-67h-146q-8 -35 -28.5 -68.5t-59.5 -75.5
q20 5 38.5 8t36.5 3q38 0 70.5 -9t67.5 -9q19 0 37.5 4.5t42.5 12.5l27 -82q-25 -14 -54.5 -21.5t-58.5 -7.5q-23 0 -44.5 4t-43.5 9.5t-44 9.5t-46 4q-26 0 -58.5 -5.5t-61.5 -14.5l-26 79q48 43 74.5 81.5t34.5 77.5h-114v67h115q-5 28 -15 53h-100v67z" />
    <glyph glyph-name="uni20A6" unicode="&#x20a6;" horiz-adv-x="857" 
d="M819 388h-86v-83h86v-66h-86v-239h-93l-193 239h-209v-239h-112v239h-89v66h89v83h-89v67h89v255h88l202 -255h204v254h113v-254h86v-67zM238 305h156l-66 83h-90v-83zM535 305h85v83h-151zM238 455h36l-36 45v-45zM620 198v41h-33z" />
    <glyph glyph-name="uni20A9" unicode="&#x20a9;" horiz-adv-x="1143" 
d="M39 328h167l-32 78h-135v66h108l-98 238h122l91 -238h205l-90 235h106l87 -241l88 241h105l-90 -235h205l91 238h123l-99 -238h110v-66h-137l-32 -78h169v-67h-197l-107 -261h-96l-132 318l-133 -318h-96l-108 261h-195v67zM493 406h-206l30 -78h156l26 63zM642 391
l25 -63h156l30 78h-206zM748 130l50 131h-104zM393 130l53 131h-103z" />
    <glyph glyph-name="Euro" unicode="&#x20ac;" horiz-adv-x="797" 
d="M131 431q11 55 38.5 106t70.5 90.5t100.5 63t127.5 23.5q97 0 166 -43t104 -112l-88 -59q-15 32 -36 54t-46 35t-52 18.5t-52 5.5q-44 0 -80 -15t-63.5 -40t-46 -58t-27.5 -69h287l-25 -62h-271v-13q0 -22 3 -43h260l-26 -62h-218q13 -34 33.5 -62.5t47.5 -49.5
t59.5 -32.5t69.5 -11.5q26 0 53.5 6.5t53 21t47 36.5t35.5 53l93 -53q-17 -40 -48 -70.5t-70 -51.5t-82.5 -32t-85.5 -11q-60 0 -111.5 20.5t-93.5 56t-72 82t-46 98.5h-107l26 62h68q-3 22 -3 47v9h-72l26 62h53z" />
    <glyph glyph-name="uni20B9" unicode="&#x20b9;" horiz-adv-x="516" 
d="M479 508h-101q1 -8 1.5 -15t0.5 -14q0 -36 -10 -69t-29 -61t-45 -48.5t-59 -30.5l173 -270h-127l-218 342h94q24 0 43.5 11t33.5 29.5t22 43.5t8 53q0 14 -3 29h-221v67h190q-16 19 -36.5 29.5t-42.5 10.5h-111v95h437v-67h-167q30 -32 46 -68h121v-67z" />
    <glyph glyph-name="uni2113" unicode="&#x2113;" horiz-adv-x="329" 
d="M213 82q11 0 25.5 3.5t28.5 8.5l16 -80q-22 -9 -52 -15t-53 -6q-54 0 -84.5 29t-30.5 81v507q0 28 11 51.5t29.5 41t44 27.5t55.5 10q58 0 94 -36t36 -94q0 -40 -15.5 -91.5t-41 -104t-58.5 -100.5t-68 -82v-88q0 -29 17 -45.5t46 -16.5zM253 595q0 67 -49 67
q-24 0 -39 -17t-15 -44v-262q20 27 38.5 61t33 68.5t23 67.5t8.5 59z" />
    <glyph glyph-name="afii61352" unicode="&#x2116;" horiz-adv-x="1156" 
d="M197 500v-500h-113v710h88l406 -512v511h113v-709h-93zM957 342q-42 0 -76 15t-58 40.5t-37 58.5t-13 70q0 38 13 71.5t37 59t58 40.5t76 15t76 -15t58 -40.5t37 -59t13 -71.5q0 -37 -13 -70t-37 -58.5t-58 -40.5t-76 -15zM858 526q0 -24 7.5 -44.5t21 -35.5t31.5 -23.5
t39 -8.5t39 8.5t31.5 23.5t21 36t7.5 45t-7.5 44.5t-21 35.5t-31.5 23.5t-39 8.5t-39 -8.5t-31.5 -23.5t-21 -36t-7.5 -45z" />
    <glyph glyph-name="servicemark" unicode="&#x2120;" horiz-adv-x="763" 
d="M590 710h107v-294h-73v198l-71 -156h-60l-71 156v-198h-73v294h106l68 -168zM265 625q-16 12 -39 21.5t-49 9.5q-48 0 -48 -25q0 -12 11.5 -20t51.5 -17q55 -13 84.5 -32.5t29.5 -63.5q0 -45 -34.5 -66t-88.5 -21q-37 0 -72.5 11t-63.5 30l32 54q17 -14 45 -24t60 -10
q48 0 48 22q0 14 -14 22t-55 18q-54 13 -79.5 31.5t-25.5 58.5q0 43 34 67t86 24q32 0 60.5 -9t53.5 -24z" />
    <glyph glyph-name="trademark" unicode="&#x2122;" horiz-adv-x="793" 
d="M325 639h-95v-223h-73v223h-95v73h263v-73zM613 710h107v-294h-73v198l-72 -156h-59l-72 156v-198h-73v294h106l68 -168z" />
    <glyph glyph-name="Omega" unicode="&#x2126;" horiz-adv-x="767" 
d="M41 90h173q-76 42 -119.5 114.5t-43.5 162.5q0 69 25.5 132t70 111t105 76.5t131.5 28.5t132 -28.5t105.5 -76.5t70 -111t25.5 -132q0 -90 -43.5 -162.5t-119.5 -114.5h173v-90h-298v90q40 14 72.5 42.5t55.5 66t35 81t12 87.5q0 46 -15.5 90t-44 79t-69 56.5t-91.5 21.5
t-91.5 -21.5t-69 -56.5t-43.5 -79t-15 -90q0 -44 12 -87.5t35 -81t55 -66t73 -42.5v-90h-298v90z" />
    <glyph glyph-name="estimated" unicode="&#x212e;" horiz-adv-x="603" 
d="M307 31q70 0 116.5 22t75.5 51l29 -31q-36 -35 -90 -59t-131 -24q-60 0 -109.5 22t-85 59t-54.5 86t-19 103q0 55 19.5 104.5t55 86.5t84.5 59t109 22t109.5 -22t85.5 -60.5t55.5 -89.5t19.5 -109h-423v-146q29 -34 68.5 -54t84.5 -20zM307 491q-45 0 -84.5 -21
t-68.5 -57v-118h308v117q-29 37 -69 58t-86 21z" />
    <glyph glyph-name="onethird" unicode="&#x2153;" horiz-adv-x="922" 
d="M123 40l281 333l264 343l52 -45l-276 -329l-270 -348zM280 379v-66h-219v66h79v279q-5 -7 -16 -15.5t-24.5 -16t-28 -13t-26.5 -5.5v66q16 0 32.5 8.5t30.5 19t23 19.5t9 10h67v-352h73zM713 -5q-63 0 -106 21.5t-55 61.5l37 47q3 -10 13 -21t26 -20.5t37 -15.5t47 -6
q45 0 76 15t31 43q0 31 -40 47t-109 16h-23v61h23q62 0 98.5 14t36.5 43q0 13 -8 23.5t-21 18t-30 11t-34 3.5q-41 0 -69 -14.5t-45 -37.5l-44 53q21 29 65 45t93 16q35 0 65 -8.5t52 -24t34.5 -36t12.5 -44.5q0 -36 -24 -58.5t-69 -31.5q48 -7 76 -36.5t28 -69.5
q0 -29 -14.5 -50.5t-38.5 -36t-55.5 -21.5t-65.5 -7z" />
    <glyph glyph-name="twothirds" unicode="&#x2154;" horiz-adv-x="940" 
d="M41 313q0 40 7 70t22 52.5t39 39t58 30.5l45 18q24 9 42.5 20t30.5 25.5t12 35.5q0 28 -22.5 45t-67.5 17t-74.5 -17t-45.5 -34l-42 48q6 8 20 20t36 22.5t51 18t65 7.5q75 0 114 -35t39 -93q0 -32 -13 -54t-33 -37t-43 -24.5t-42 -15.5q-54 -18 -73.5 -43.5t-19.5 -50.5
h215v-65h-320zM182 40l281 333l264 343l52 -45l-276 -329l-270 -348zM731 -5q-63 0 -106 21.5t-55 61.5l37 47q3 -10 13 -21t26 -20.5t37 -15.5t47 -6q45 0 76 15t31 43q0 31 -40 47t-109 16h-23v61h23q62 0 98.5 14t36.5 43q0 13 -8 23.5t-21 18t-30 11t-34 3.5
q-41 0 -69 -14.5t-45 -37.5l-44 53q21 29 65 45t93 16q35 0 65 -8.5t52 -24t34.5 -36t12.5 -44.5q0 -36 -24 -58.5t-69 -31.5q48 -7 76 -36.5t28 -69.5q0 -29 -14.5 -50.5t-38.5 -36t-55.5 -21.5t-65.5 -7z" />
    <glyph glyph-name="oneeighth" unicode="&#x215b;" horiz-adv-x="919" 
d="M135 40l281 333l264 343l52 -45l-276 -329l-270 -348zM279 379v-66h-219v66h79v279q-5 -7 -16 -15.5t-24.5 -16t-28 -13t-26.5 -5.5v66q16 0 32.5 8.5t30.5 19t23 19.5t9 10h67v-352h73zM884 119q0 -27 -14 -50t-37.5 -39.5t-54.5 -25.5t-66 -9q-36 0 -67.5 10t-54.5 27
t-36 40t-13 49q0 39 26.5 63t61.5 38q-29 11 -50.5 30.5t-21.5 50.5q0 25 14 45.5t36 34.5t50 22t56 8t55.5 -7.5t49.5 -22t36 -34.5t14 -45q0 -29 -20.5 -50t-51.5 -32q38 -15 63 -40t25 -63zM817 126q0 15 -9 27.5t-24 20.5t-33.5 12.5t-37.5 4.5q-20 0 -39 -4.5
t-33.5 -13.5t-23 -21t-8.5 -27t9.5 -27t24.5 -20t33.5 -12.5t37.5 -4.5t37.5 4.5t33 13t23.5 20.5t9 27zM624 297q0 -12 8 -21.5t20.5 -16t28.5 -10t32 -3.5q15 0 31 3.5t29 10.5t21 16.5t8 21.5t-7.5 21t-20 16t-28.5 10.5t-33 3.5q-35 0 -62 -14t-27 -38z" />
    <glyph glyph-name="threeeighths" unicode="&#x215c;" horiz-adv-x="926" 
d="M201 306q-63 0 -106 22t-55 61l37 48q3 -10 13 -21t26 -20.5t37 -15.5t47 -6q45 0 76 15.5t31 43.5q0 31 -40 46.5t-109 15.5h-23v61h23q62 0 98.5 14t36.5 43q0 14 -8 24.5t-21 17.5t-30 10.5t-34 3.5q-41 0 -69 -14.5t-45 -37.5l-44 53q21 29 65 45t93 16q35 0 65 -8.5
t52 -24t34.5 -36.5t12.5 -45q0 -35 -24 -57.5t-69 -30.5q48 -7 76 -36.5t28 -69.5q0 -29 -14.5 -51t-38.5 -36.5t-55.5 -22t-65.5 -7.5zM164 40l281 333l264 343l52 -45l-276 -329l-270 -348zM891 119q0 -27 -14 -50t-37.5 -39.5t-54.5 -25.5t-66 -9q-36 0 -67.5 10
t-54.5 27t-36 40t-13 49q0 39 26.5 63t61.5 38q-29 11 -50.5 30.5t-21.5 50.5q0 25 14 45.5t36 34.5t50 22t56 8t55.5 -7.5t49.5 -22t36 -34.5t14 -45q0 -29 -20.5 -50t-51.5 -32q38 -15 63 -40t25 -63zM824 126q0 15 -9 27.5t-24 20.5t-33.5 12.5t-37.5 4.5q-20 0 -39 -4.5
t-33.5 -13.5t-23 -21t-8.5 -27t9.5 -27t24.5 -20t33.5 -12.5t37.5 -4.5t37.5 4.5t33 13t23.5 20.5t9 27zM631 297q0 -12 8 -21.5t20.5 -16t28.5 -10t32 -3.5q15 0 31 3.5t29 10.5t21 16.5t8 21.5t-7.5 21t-20 16t-28.5 10.5t-33 3.5q-35 0 -62 -14t-27 -38z" />
    <glyph glyph-name="fiveeighths" unicode="&#x215d;" horiz-adv-x="936" 
d="M206 583q34 0 63 -9.5t50.5 -27t33.5 -42t12 -53.5q0 -31 -13.5 -57t-36.5 -44.5t-55 -28.5t-69 -10q-51 0 -93 20t-63 53l41 43q19 -24 50 -37.5t69 -13.5q43 0 72.5 20t29.5 57q0 20 -8.5 35t-22.5 24.5t-31.5 14.5t-34.5 5q-28 0 -54.5 -13t-40.5 -33h-59q4 24 12 58
l16 68l16 66q8 32 11 52h235v-66h-186l-27 -103q14 10 35 16t48 6zM163 40l281 333l264 343l52 -45l-276 -329l-270 -348zM901 119q0 -27 -14 -50t-37.5 -39.5t-54.5 -25.5t-66 -9q-36 0 -67.5 10t-54.5 27t-36 40t-13 49q0 39 26.5 63t61.5 38q-29 11 -50.5 30.5
t-21.5 50.5q0 25 14 45.5t36 34.5t50 22t56 8t55.5 -7.5t49.5 -22t36 -34.5t14 -45q0 -29 -20.5 -50t-51.5 -32q38 -15 63 -40t25 -63zM834 126q0 15 -9 27.5t-24 20.5t-33.5 12.5t-37.5 4.5q-20 0 -39 -4.5t-33.5 -13.5t-23 -21t-8.5 -27t9.5 -27t24.5 -20t33.5 -12.5
t37.5 -4.5t37.5 4.5t33 13t23.5 20.5t9 27zM641 297q0 -12 8 -21.5t20.5 -16t28.5 -10t32 -3.5q15 0 31 3.5t29 10.5t21 16.5t8 21.5t-7.5 21t-20 16t-28.5 10.5t-33 3.5q-35 0 -62 -14t-27 -38z" />
    <glyph glyph-name="seveneighths" unicode="&#x215e;" horiz-adv-x="900" 
d="M85 40l281 333l264 343l52 -45l-276 -329l-270 -348zM864 119q0 -27 -14 -50t-37.5 -39.5t-54.5 -25.5t-66 -9q-36 0 -67.5 10t-54.5 27t-36 40t-13 49q0 39 26.5 63t61.5 38q-29 11 -50.5 30.5t-21.5 50.5q0 25 14 45.5t36 34.5t50 22t56 8t55.5 -7.5t49.5 -22t36 -34.5
t14 -45q0 -29 -20.5 -50t-51.5 -32q38 -15 63 -40t25 -63zM797 126q0 15 -9 27.5t-24 20.5t-33.5 12.5t-37.5 4.5q-20 0 -39 -4.5t-33.5 -13.5t-23 -21t-8.5 -27t9.5 -27t24.5 -20t33.5 -12.5t37.5 -4.5t37.5 4.5t33 13t23.5 20.5t9 27zM604 297q0 -12 8 -21.5t20.5 -16
t28.5 -10t32 -3.5q15 0 31 3.5t29 10.5t21 16.5t8 21.5t-7.5 21t-20 16t-28.5 10.5t-33 3.5q-35 0 -62 -14t-27 -38zM283 664h-242v66h348l-244 -412h-75z" />
    <glyph glyph-name="partialdiff" unicode="&#x2202;" horiz-adv-x="567" 
d="M248 -10q-49 0 -90.5 16t-71.5 44t-46.5 65.5t-16.5 81.5q0 48 20.5 91.5t55 76.5t79.5 52t95 19q51 0 89.5 -21.5t54.5 -59.5q2 20 2 38v35q-1 54 -11 91t-28 60t-43 33t-55 10q-37 0 -72 -13t-54 -34l-61 65q35 36 87.5 55.5t111.5 19.5q111 0 169.5 -77t58.5 -244
q0 -98 -20 -173.5t-56 -126.5t-86.5 -77.5t-111.5 -26.5zM252 80q29 0 56 12t47.5 32t32.5 47t12 56q0 26 -9.5 48.5t-26.5 39t-40 26t-49 9.5q-29 0 -56 -11.5t-47 -31.5t-32 -46.5t-12 -56.5q0 -26 9.5 -48.5t26 -39.5t39.5 -26.5t49 -9.5z" />
    <glyph glyph-name="Delta" unicode="&#x2206;" horiz-adv-x="623" 
d="M616 85v-85h-609v85l259 625h92zM499 99l-187 483l-185 -483h372z" />
    <glyph glyph-name="product" unicode="&#x220f;" horiz-adv-x="725" 
d="M506 613h-288v-703h-106v703h-80v97h661v-97h-80v-703h-107v703z" />
    <glyph glyph-name="summation" unicode="&#x2211;" horiz-adv-x="554" 
d="M507 623h-328v-4l186 -250l-205 -268v-4h359v-97h-487v76l219 280l-212 283v71h468v-87z" />
    <glyph glyph-name="minus" unicode="&#x2212;" horiz-adv-x="532" 
d="M64 271v89h404v-89h-404z" />
    <glyph glyph-name="uni2215" unicode="&#x2215;" horiz-adv-x="608" 
d="M-12 47l569 669l64 -53l-569 -669z" />
    <glyph glyph-name="uni2219" unicode="&#x2219;" horiz-adv-x="213" 
d="M61 243v137h91v-137h-91z" />
    <glyph glyph-name="radical" unicode="&#x221a;" horiz-adv-x="499" 
d="M9 371h177l65 -283l112 702h101l-152 -790h-126l-85 293h-92v78z" />
    <glyph glyph-name="infinity" unicode="&#x221e;" horiz-adv-x="700" 
d="M206 526q29 0 51 -7.5t39 -19.5t30 -28.5t24 -34.5q11 18 24 34.5t30 28.5t39 19.5t51 7.5q37 0 67.5 -14t52 -37.5t33 -55.5t11.5 -68t-12.5 -67.5t-34.5 -55.5t-52.5 -37.5t-65.5 -13.5q-28 0 -49.5 6.5t-38 18t-29.5 26t-24 30.5q-11 -16 -23.5 -30.5t-30 -26t-40 -18
t-52.5 -6.5q-31 0 -60.5 14t-53 37.5t-37.5 55.5t-14 68t12.5 67.5t34.5 55.5t52.5 37.5t65.5 13.5zM210 262q20 0 35.5 7t28 19t23 28t19.5 34q-19 37 -42 63.5t-64 26.5q-15 0 -30 -5t-26.5 -15.5t-19 -27.5t-7.5 -40q0 -24 7.5 -41t19 -28t26.5 -16t30 -5zM490 262
q15 0 30 5t26.5 16t19 28t7.5 41q0 23 -7.5 40t-19 27.5t-26.5 15.5t-30 5q-21 0 -36.5 -7.5t-27.5 -20.5t-21.5 -30t-17.5 -36q9 -17 18.5 -32.5t21.5 -27t27.5 -18t35.5 -6.5z" />
    <glyph glyph-name="integral" unicode="&#x222b;" horiz-adv-x="336" 
d="M96 701q-3 53 27.5 86t87.5 33q26 0 59 -6.5t58 -17.5l-22 -78q-13 6 -27 9.5t-25 3.5q-26 0 -41 -16.5t-13 -45.5l39 -717q3 -57 -27 -88t-87 -31q-26 0 -58.5 6.5t-58.5 17.5l22 78q28 -13 52 -13q25 0 40.5 16.5t13.5 45.5z" />
    <glyph glyph-name="approxequal" unicode="&#x2248;" horiz-adv-x="442" 
d="M384 346q-14 -23 -38 -40t-61 -17q-23 0 -40 6.5t-31.5 15t-28.5 15t-30 6.5q-20 0 -31 -7.5t-16 -17.5l-50 44q13 22 35.5 39t57.5 17q22 0 38.5 -7t31 -15.5t29 -15.5t32.5 -7q21 0 33.5 7.5t19.5 16.5zM384 198q-14 -20 -38 -36t-61 -16q-23 0 -40 6.5t-31.5 15
t-28.5 15t-30 6.5q-20 0 -31 -7.5t-16 -17.5l-50 44q13 22 35.5 39t57.5 17q22 0 38.5 -7t31 -15.5t29 -15.5t32.5 -7q21 0 33.5 7t19.5 16z" />
    <glyph glyph-name="notequal" unicode="&#x2260;" horiz-adv-x="473" 
d="M82 388h184l65 123l44 -24l-52 -99h68v-73h-107l-41 -78h148v-73h-186l-64 -122l-44 24l51 98h-66v73h105l41 78h-146v73z" />
    <glyph glyph-name="lessequal" unicode="&#x2264;" horiz-adv-x="460" 
d="M54 40v89h342v-89h-342zM54 412l339 164v-105l-201 -90l201 -87v-108l-339 158v68z" />
    <glyph glyph-name="greaterequal" unicode="&#x2265;" horiz-adv-x="460" 
d="M65 40v89h342v-89h-342zM407 344l-340 -158v108l201 87l-201 90v105l340 -164v-68z" />
    <glyph glyph-name="lozenge" unicode="&#x25ca;" horiz-adv-x="542" 
d="M331 730l186 -364l-186 -366h-120l-186 366l186 364h120zM418 354l-148 295l-139 -274l148 -297z" />
    <glyph glyph-name="uni25FC" unicode="&#x25fc;" horiz-adv-x="525" 
d="M0 525h525v-525h-525v525z" />
    <glyph glyph-name="commaaccent" unicode="&#xf6c3;" horiz-adv-x="184" 
d="M68 -213l23 77h-32v88h95v-88l-35 -77h-51z" />
    <glyph glyph-name="s_t" unicode="&#xfb06;" horiz-adv-x="846" 
d="M836 27q-22 -10 -59 -22.5t-77 -12.5q-26 0 -49.5 7t-40.5 21t-27 36.5t-10 54.5v327h-70v85h70q0 48 -3.5 80t-12.5 51t-25 27t-43 8q-55 0 -78.5 -26.5t-23.5 -64.5q0 -23 6 -44t14 -38.5t16 -30.5t13 -18l-45 -68q-39 32 -76.5 43.5t-70.5 11.5q-20 0 -38.5 -4
t-33 -12.5t-23 -22.5t-8.5 -34q0 -23 11 -36.5t28 -22t39 -12.5l44 -8q44 -8 81 -18t63.5 -26.5t41 -41.5t14.5 -62q0 -42 -16.5 -73t-45 -51t-66 -30t-78.5 -10q-32 0 -64.5 5.5t-62.5 15.5t-56.5 23t-47.5 28l43 75q94 -67 186 -67q20 0 39.5 4t34.5 12.5t24 22t9 33.5
q0 22 -11.5 35.5t-30.5 21t-42 11.5l-48 10q-43 9 -77.5 19.5t-59 26t-37.5 39.5t-13 60q0 42 17 73.5t44.5 52.5t62.5 31t71 10q29 0 64 -7t64 -24q-13 24 -20.5 46t-7.5 53q0 29 9.5 54.5t30.5 45t55 30.5t82 11q58 0 92 -14t50.5 -41.5t21 -68.5t4.5 -94h113v-85h-113
v-292q0 -28 16 -40.5t39 -12.5t43.5 8t31.5 13z" />
    <glyph glyph-name="nonmarkingreturn" horiz-adv-x="0" 
 />
    <glyph glyph-name="NULL" horiz-adv-x="0" 
 />
    <glyph glyph-name="four.denominator" horiz-adv-x="400" 
d="M246 0v97h-224v64l244 253h46v-252h60v-65h-60v-97h-66zM89 162h159v167z" />
    <glyph glyph-name="one.numerator" horiz-adv-x="289" 
d="M268 379v-66h-219v66h79v279q-5 -7 -16 -15.5t-24.5 -16t-28 -13t-26.5 -5.5v66q16 0 32.5 8.5t30.5 19t23 19.5t9 10h67v-352h73z" />
    <glyph glyph-name="two.denominator" horiz-adv-x="410" 
d="M32 0q0 40 7 70t23 52.5t40.5 39.5t59.5 31l46 17q24 9 43.5 20t31.5 25.5t12 35.5q0 29 -23.5 45.5t-68.5 16.5q-46 0 -76.5 -17.5t-47.5 -34.5l-43 49q6 8 20.5 20t37 22.5t52.5 18t67 7.5q78 0 117.5 -34.5t39.5 -93.5q0 -32 -13.5 -54t-33.5 -37t-43.5 -24t-43.5 -15
q-56 -18 -76 -44t-20 -51h231v-65h-339z" />
    <glyph glyph-name="three.numerator" horiz-adv-x="400" 
d="M191 306q-63 0 -106 22t-55 61l37 48q3 -10 13 -21t26 -20.5t37 -15.5t47 -6q45 0 76 15.5t31 43.5q0 31 -40 46.5t-109 15.5h-23v61h23q62 0 98.5 14t36.5 43q0 14 -8 24.5t-21 17.5t-30 10.5t-34 3.5q-41 0 -69 -14.5t-45 -37.5l-44 53q21 29 65 45t93 16q35 0 65 -8.5
t52 -24t34.5 -36.5t12.5 -45q0 -35 -24 -57.5t-69 -30.5q48 -7 76 -36.5t28 -69.5q0 -29 -14.5 -51t-38.5 -36.5t-55.5 -22t-65.5 -7.5z" />
    <glyph glyph-name="caron.alt" horiz-adv-x="243" 
d="M119 598l-72 22l57 110h105z" />
    <glyph glyph-name="dotbelow" horiz-adv-x="199" 
d="M50 -189v116h99v-116h-99z" />
    <glyph glyph-name="three.denominator" horiz-adv-x="401" 
d="M191 -5q-63 0 -106 21.5t-55 61.5l37 47q3 -10 13 -21t26 -20.5t37 -15.5t47 -6q45 0 76 15t31 43q0 31 -40 47t-109 16h-23v61h23q62 0 98.5 14t36.5 43q0 13 -8 23.5t-21 18t-30 11t-34 3.5q-41 0 -69 -14.5t-45 -37.5l-44 53q21 29 65 45t93 16q35 0 65 -8.5t52 -24
t34.5 -36t12.5 -44.5q0 -36 -24 -58.5t-69 -31.5q48 -7 76 -36.5t28 -69.5q0 -29 -14.5 -50.5t-38.5 -36t-55.5 -21.5t-65.5 -7z" />
    <glyph glyph-name="two.numerator" horiz-adv-x="406" 
d="M32 313q0 40 7 70t23 52.5t40 39t59 30.5l47 18q24 9 43.5 20t31.5 25.5t12 35.5q0 28 -23.5 45t-68.5 17q-46 0 -76.5 -17t-47.5 -34l-43 48q6 8 20.5 20t37 22.5t52.5 18t67 7.5q78 0 117.5 -35t39.5 -93q0 -32 -13.5 -54t-34 -37t-44 -24.5t-43.5 -15.5
q-28 -9 -46 -20t-29 -23.5t-15.5 -25.5t-4.5 -25h221v-65h-329z" />
    <glyph glyph-name="eight.denominator" horiz-adv-x="412" 
d="M377 119q0 -27 -14 -50t-37.5 -39.5t-54.5 -25.5t-66 -9q-36 0 -67.5 10t-54.5 27t-36 40t-13 49q0 39 26.5 63t61.5 38q-29 11 -50.5 30.5t-21.5 50.5q0 25 14 45.5t36 34.5t50 22t56 8t55.5 -7.5t49.5 -22t36 -34.5t14 -45q0 -29 -20.5 -50t-51.5 -32q38 -15 63 -40
t25 -63zM310 126q0 15 -9 27.5t-24 20.5t-33.5 12.5t-37.5 4.5q-20 0 -39 -4.5t-33.5 -13.5t-23 -21t-8.5 -27t9.5 -27t24.5 -20t33.5 -12.5t37.5 -4.5t37.5 4.5t33 13t23.5 20.5t9 27zM117 297q0 -12 8 -21.5t20.5 -16t28.5 -10t32 -3.5q15 0 31 3.5t29 10.5t21 16.5
t8 21.5t-7.5 21t-20 16t-28.5 10.5t-33 3.5q-35 0 -62 -14t-27 -38z" />
    <glyph glyph-name="five.numerator" horiz-adv-x="387" 
d="M198 583q34 0 63 -9.5t50.5 -27t33.5 -42t12 -53.5q0 -31 -13.5 -57t-36.5 -44.5t-55 -28.5t-69 -10q-51 0 -93 20t-63 53l41 43q19 -24 50 -37.5t69 -13.5q43 0 72.5 20t29.5 57q0 20 -8.5 35t-22.5 24.5t-31.5 14.5t-34.5 5q-28 0 -54.5 -13t-40.5 -33h-59q4 24 12 58
l16 68l16 66q8 32 11 52h235v-66h-186l-27 -103q14 10 35 16t48 6z" />
    <glyph glyph-name="seven.numerator" horiz-adv-x="376" 
d="M267 664h-242v66h348l-244 -412h-75z" />
    <glyph glyph-name="R.sc" horiz-adv-x="584" 
d="M74 0v555h267q42 0 76.5 -16t60 -42t39.5 -58.5t14 -66.5q0 -27 -8.5 -52.5t-24 -47t-37 -38t-48.5 -25.5l146 -209h-114l-133 189h-139v-189h-99zM173 276h166q40 0 65.5 28t25.5 68q0 20 -7.5 37.5t-21 30t-31 20t-36.5 7.5h-161v-191z" />
    <glyph glyph-name="eight.lnum" horiz-adv-x="601" 
d="M554 205q0 -48 -20.5 -87.5t-55.5 -67.5t-81 -43t-98 -15q-53 0 -99.5 16.5t-80.5 45.5t-53.5 69t-19.5 87q0 31 11 58t28.5 48.5t39.5 37.5t44 26q-41 18 -70 55t-29 84q0 46 21 81.5t54 60t74 37t81 12.5t81.5 -12.5t75 -36.5t54.5 -59.5t21 -81.5q0 -47 -29.5 -84.5
t-71.5 -55.5q24 -11 46.5 -27.5t39.5 -39t27 -49.5t10 -59zM443 212q0 29 -12.5 51.5t-33 38.5t-46 24t-51.5 8q-27 0 -52.5 -8.5t-45 -24.5t-31.5 -38.5t-12 -50.5t12.5 -50.5t32.5 -38t45.5 -24t51.5 -8.5q27 0 52.5 9t45.5 25t32 38t12 49zM181 515q0 -24 11 -42t28 -30
t38 -18.5t42 -6.5t42.5 6.5t38.5 19t28 31t11 42.5q0 22 -10 39.5t-26.5 30t-38 19t-45.5 6.5t-45.5 -7t-38 -19.5t-26 -30.5t-9.5 -40z" />
    <glyph glyph-name="eight.numerator" horiz-adv-x="412" 
d="M377 436q0 -27 -14 -50t-37.5 -39.5t-54.5 -26t-66 -9.5q-36 0 -67.5 10t-54.5 27t-36 40.5t-13 49.5q0 39 26.5 62.5t61.5 37.5q-29 11 -50.5 31t-21.5 51q0 25 14 45.5t36 34.5t50 22t56 8t55.5 -7.5t49.5 -22t36 -34.5t14 -45q0 -30 -20.5 -51t-51.5 -32
q38 -14 63 -39.5t25 -62.5zM310 443q0 15 -9 27.5t-24 20.5t-33.5 12.5t-37.5 4.5q-20 0 -39 -4.5t-33.5 -13t-23 -20.5t-8.5 -27t9.5 -27.5t24.5 -20.5t33.5 -12.5t37.5 -4.5t37.5 4.5t33 13t23.5 20.5t9 27zM117 615q0 -13 8 -22.5t20.5 -16t28.5 -10t32 -3.5q15 0 31 3.5
t29 10t21 16.5t8 22t-7.5 21.5t-20 16t-28.5 10t-33 3.5q-35 0 -62 -14t-27 -37z" />
    <glyph glyph-name="S.sc" horiz-adv-x="528" 
d="M428 415q-10 9 -26.5 19t-37.5 18.5t-46 13.5t-51 5q-58 0 -85.5 -18.5t-27.5 -50.5q0 -18 9 -30t27 -21t45.5 -16.5t64.5 -15.5q45 -11 81 -23t61.5 -30.5t39.5 -44.5t14 -64q0 -44 -17.5 -75t-47.5 -50.5t-70 -28.5t-85 -9q-69 0 -133 19t-115 54l45 86
q12 -12 33 -24.5t47.5 -22.5t58 -16.5t66.5 -6.5q53 0 82 16t29 48q0 19 -11 32t-32 23t-51 18t-68 17q-44 11 -77 23.5t-55 30.5t-33 42t-11 57q0 41 17 72.5t46.5 53t69 32.5t85.5 11q62 0 113.5 -18t89.5 -45z" />
    <glyph glyph-name="I.sc" horiz-adv-x="247" 
d="M74 0v555h99v-555h-99z" />
    <glyph glyph-name="w.alt" horiz-adv-x="856" 
d="M542 0l-114 353l-114 -353h-118l-182 523h115l130 -390l117 390h104l117 -390l130 390h114l-181 -523h-118z" />
    <glyph glyph-name="y.alt" horiz-adv-x="549" 
d="M533 523l-269 -736h-126q1 1 9 23l21 52l27 69l29 69l-215 523h114l161 -426l145 426h104z" />
    <glyph glyph-name="E.sc" horiz-adv-x="532" 
d="M495 88v-88h-421v555h413v-88h-314v-144h272v-81h-272v-154h322z" />
    <glyph glyph-name="zero.denominator" horiz-adv-x="476" 
d="M239 -5q-51 0 -89.5 19.5t-64 50t-38.5 67.5t-13 72q0 37 14 74.5t40.5 67.5t64.5 48.5t86 18.5q50 0 88.5 -20t64 -51t38.5 -67.5t13 -70.5q0 -38 -14 -75.5t-40.5 -67t-64.5 -48t-85 -18.5zM103 204q0 -25 8.5 -50.5t25.5 -46t42.5 -33.5t59.5 -13q35 0 60.5 14
t42.5 35t25 46t8 48q0 25 -9 50.5t-26.5 46t-42.5 33.5t-58 13q-35 0 -61 -14t-42.5 -35t-24.5 -46.5t-8 -47.5z" />
    <glyph glyph-name="zero.lnum" horiz-adv-x="695" 
d="M348 -10q-75 1 -132 35t-95 86t-57.5 115.5t-19.5 123.5q0 64 21 128.5t60.5 116t95.5 83.5t127 32q75 0 131.5 -34.5t95 -87.5t57.5 -116.5t19 -121.5q0 -65 -21 -129t-60.5 -115t-95.5 -83t-126 -33zM158 350q1 -45 13.5 -91.5t36 -83.5t58.5 -60.5t82 -23.5
q49 0 84.5 25t58.5 63t34.5 84t11.5 87q0 45 -12.5 91.5t-36.5 83.5t-59 60.5t-81 23.5q-49 0 -85 -25t-59 -63.5t-34.5 -84t-11.5 -86.5z" />
    </font>
</defs>
</svg>
