<?xml version="1.0" standalone="no"?>
<!DOCTYPE svg PUBLIC "-//W3C//DTD SVG 1.1//EN" "http://www.w3.org/Graphics/SVG/1.1/DTD/svg11.dtd" >
<svg xmlns="http://www.w3.org/2000/svg" xmlns:xlink="http://www.w3.org/1999/xlink" version="1.1">
<defs>
<font id="RisingSun-Light" horiz-adv-x="612" >
  <font-face 
    font-family="Rising Sun Light"
    font-weight="300"
    font-stretch="normal"
    units-per-em="1000"
    panose-1="2 11 4 3 3 1 1 6 0 3"
    ascent="800"
    descent="-200"
    x-height="520"
    cap-height="710"
    bbox="-220 -223 1308 936"
    underline-thickness="50"
    underline-position="-150"
    unicode-range="U+000D-FB06"
  />
<missing-glyph horiz-adv-x="0" 
 />
    <glyph glyph-name="f_f" unicode="ff" horiz-adv-x="565" 
d="M501 695q-36 0 -60.5 -14.5t-39.5 -37t-21.5 -50.5t-6.5 -55v-18h172v-41h-172v-479h-50v479h-172v-479h-50v479h-73v41h73v8q0 32 9 63t28 55.5t48 39.5t69 15q35 0 63 -8.5t44 -18.5q21 30 52 48t78 18q24 0 41 -4.5t28.5 -10t18.5 -11t10 -7.5l-18 -36
q-8 7 -23.5 15.5t-47.5 8.5zM323 520q0 33 5 62.5t17 52.5q-17 13 -41 17t-41 4q-33 0 -54.5 -12t-34 -30.5t-18 -41t-5.5 -43.5v-9h172z" />
    <glyph glyph-name="f_i" unicode="fi" horiz-adv-x="484" 
d="M101 479h-73v41h73v17q0 34 10 70.5t31 65.5t54.5 48t80.5 19q27 0 50.5 -5t41.5 -11.5t30 -14t17 -11.5l-25 -35q-14 13 -44 22.5t-68 9.5q-34 0 -58.5 -14.5t-40 -37t-22.5 -50.5t-7 -55v-18h255v-520h-50v479h-205v-479h-50v479z" />
    <glyph glyph-name="f_l" unicode="fl" horiz-adv-x="562" 
d="M564 8q0 -1 -8 -3t-20 -4.5t-27 -4.5t-30 -2q-45 0 -69 27t-24 63v503q0 19 -6 38.5t-19.5 35t-35.5 25t-54 9.5t-54.5 -13.5t-37 -35.5t-21.5 -50.5t-7 -59.5v-16h116v-41h-116v-479h-50v479h-73v41h73v20q0 43 10 79.5t31 63.5t53 42t76 15q40 0 71 -11t52 -30.5
t31.5 -46t10.5 -57.5v-493q0 -21 14 -41.5t43 -20.5q20 0 39.5 5t20.5 5z" />
    <glyph glyph-name="f_f_i" unicode="ffi" horiz-adv-x="706" 
d="M101 479h-73v41h73v8q0 31 9 61.5t28 55.5t48 40.5t70 15.5q35 0 62.5 -8.5t43.5 -18.5q22 30 55.5 48t81.5 18q26 0 48.5 -5t40.5 -11.5t31 -14t19 -11.5l-26 -35q-13 12 -43.5 22t-64.5 10q-36 0 -61 -14.5t-40.5 -37t-22.5 -50.5t-7 -55v-18h255v-520h-50v479h-205
v-479h-50v479h-172v-479h-50v479zM323 520q0 32 5 62t17 53q-17 13 -41 17t-41 4q-33 0 -54.5 -12.5t-34 -31t-18 -41t-5.5 -43.5v-8h172z" />
    <glyph glyph-name="f_f_l" unicode="ffl" horiz-adv-x="788" 
d="M708 -6q-48 0 -72.5 27t-24.5 63v503q0 20 -6.5 39.5t-20 34.5t-34.5 24.5t-50 9.5q-34 0 -57.5 -14t-38 -36.5t-21 -51.5t-6.5 -59v-14h115v-41h-115v-479h-50v479h-176v-479h-50v479h-73v41h73v7q0 36 10.5 67.5t30.5 55t50.5 37.5t69.5 14q36 0 59.5 -8.5t39.5 -17.5
q21 31 54.5 48t81.5 17q40 0 70.5 -11t51.5 -30.5t31.5 -46t10.5 -57.5v-493q0 -21 14 -41.5t44 -20.5q9 0 19 1.5t19 3.5l14 3q6 2 7 2l12 -42q0 -1 -8 -3t-20 -4.5t-26.5 -4.5t-27.5 -2zM327 520q0 36 4 66t13 50q-17 13 -37 16.5t-37 3.5q-32 0 -54.5 -11.5t-37 -29.5
t-21 -41t-6.5 -46v-8h176z" />
    <glyph glyph-name=".notdef" horiz-adv-x="0" 
 />
    <glyph glyph-name=".null" horiz-adv-x="0" 
 />
    <glyph glyph-name="uni000D" unicode="&#xd;" horiz-adv-x="0" 
 />
    <glyph glyph-name="space" unicode=" " horiz-adv-x="257" 
 />
    <glyph glyph-name="exclam" unicode="!" horiz-adv-x="243" 
d="M96 218v499h51v-499h-51zM96 0v102h51v-102h-51z" />
    <glyph glyph-name="quotedbl" unicode="&#x22;" horiz-adv-x="264" 
d="M70 540v174h45v-174h-45zM149 540v174h44v-174h-44z" />
    <glyph glyph-name="numbersign" unicode="#" horiz-adv-x="669" 
d="M631 466h-125l-51 -213h134v-41h-144l-52 -212h-44l53 212h-208l-52 -212h-44l53 212h-113v41h122l52 213h-133v39h143l49 205h44l-50 -205h208l49 205h44l-50 -205h115v-39zM412 253l51 213h-208l-52 -213h209z" />
    <glyph glyph-name="dollar" unicode="$" horiz-adv-x="617" 
d="M513 592q-68 76 -189 77v-291h3q57 -12 103.5 -26.5t79 -36.5t50 -54t17.5 -79t-18 -82t-51 -58.5t-79 -35.5t-102 -12v-93h-31v94q-149 8 -254 105l27 41q41 -43 99 -70t130 -32v295q-56 12 -99.5 25.5t-72.5 34t-44 49.5t-15 73q0 45 16.5 81t46.5 61t72.5 39.5
t93.5 16.5v101h31v-100q66 -2 118 -22.5t94 -60.5zM523 176q0 33 -12.5 57t-37 41.5t-62 30t-87.5 24.5v-290h1q93 0 145.5 34t52.5 103zM119 523q0 -32 10 -53.5t32 -37t56 -27t81 -21.5v284q-94 -4 -136.5 -43t-42.5 -102z" />
    <glyph glyph-name="percent" unicode="%" horiz-adv-x="698" 
d="M188 437q-30 0 -56.5 11t-46 30t-31 45t-11.5 55q0 30 11.5 55.5t31 45t46 30.5t56.5 11t56.5 -11t46 -30.5t31 -45t11.5 -55.5q0 -29 -11.5 -55t-31 -45t-46 -30t-56.5 -11zM188 469q22 0 41.5 9t33.5 24t22.5 35t8.5 41q0 23 -8.5 43t-23.5 35t-34 23.5t-40 8.5
q-22 0 -41 -9t-33.5 -24t-22.5 -35t-8 -42q0 -23 8.5 -42.5t22.5 -34.5t33.5 -23.5t40.5 -8.5zM510 -10q-30 0 -56.5 11t-46 30.5t-31 45t-11.5 55.5q0 29 11.5 55t31 45t46 30t56.5 11t56.5 -11t46 -30t31 -45t11.5 -55q0 -30 -11.5 -55.5t-31 -45t-46 -30.5t-56.5 -11z
M510 22q22 0 41.5 9t33.5 24t22.5 35t8.5 42t-8.5 42t-23.5 35t-34 23.5t-40 8.5q-22 0 -41 -9t-33.5 -24t-22.5 -35t-8 -41q0 -23 8 -43t22.5 -35t33.5 -23.5t41 -8.5zM59 21l279 344l274 348l28 -23l-279 -345l-275 -348z" />
    <glyph glyph-name="ampersand" unicode="&#x26;" horiz-adv-x="655" 
d="M581 0l-91 95q-41 -48 -96 -76.5t-122 -28.5q-44 0 -84.5 13t-71.5 37.5t-49 59t-18 78.5q0 36 12.5 66.5t34 56t50 48.5t60.5 44q-28 30 -47.5 54.5t-31.5 44.5t-17.5 38.5t-5.5 36.5q0 31 13.5 58.5t36.5 48.5t55 33t69 12q34 0 63 -10.5t50.5 -28.5t33.5 -43t12 -54
q0 -30 -13 -56.5t-35.5 -50t-52.5 -44.5l-61 -44l214 -222q22 39 34 85.5t12 96.5h44q-2 -120 -60 -214l129 -134h-67zM278 31q57 0 103 25.5t80 68.5l-226 237q-29 -20 -53.5 -40t-43.5 -42.5t-29.5 -48t-10.5 -55.5q0 -36 16 -63t41.5 -45.5t58 -27.5t64.5 -9zM151 568
q0 -13 3.5 -26t14 -30t29 -39.5t47.5 -53.5q66 43 106 79.5t40 82.5q0 42 -32 69.5t-82 27.5q-27 0 -50 -9t-40 -24t-26.5 -35t-9.5 -42z" />
    <glyph glyph-name="quotesingle" unicode="'" horiz-adv-x="185" 
d="M70 539v175h45v-175h-45z" />
    <glyph glyph-name="parenleft" unicode="(" horiz-adv-x="256" 
d="M46 345q0 51 11 100.5t29.5 97.5t43.5 95.5t53 95.5l39 -20q-22 -32 -45 -76.5t-41.5 -94.5t-30.5 -102t-12 -99q0 -78 34 -170.5t95 -182.5l-38 -22q-64 94 -101 189t-37 189z" />
    <glyph glyph-name="parenright" unicode=")" horiz-adv-x="255" 
d="M209 345q0 -94 -36.5 -189t-100.5 -189l-38 22q60 90 94 182.5t34 170.5q0 47 -12 99t-31 102t-41.5 94.5t-44.5 76.5l39 20q28 -48 53 -95.5t44 -95.5t29.5 -97.5t10.5 -100.5z" />
    <glyph glyph-name="asterisk" unicode="*" horiz-adv-x="314" 
d="M90 553l42 60l-68 22l9 29l68 -24v72h31v-72l69 24l9 -29l-68 -22l43 -60l-26 -18l-42 61l-42 -61z" />
    <glyph glyph-name="plus" unicode="+" horiz-adv-x="414" 
d="M360 376v-42h-130v-141h-46v141h-131v42h131v141h46v-141h130z" />
    <glyph glyph-name="comma" unicode="," horiz-adv-x="238" 
d="M97 -81l15 79h-18v87h51v-87l-21 -79h-27z" />
    <glyph glyph-name="hyphen" unicode="-" horiz-adv-x="422" 
d="M67 249v46h288v-46h-288z" />
    <glyph glyph-name="period" unicode="." horiz-adv-x="177" 
d="M67 0v85h44v-85h-44z" />
    <glyph glyph-name="slash" unicode="/" horiz-adv-x="579" 
d="M551 710l-467 -710h-57l466 710h58z" />
    <glyph glyph-name="zero" unicode="0" horiz-adv-x="678" 
d="M339 -10q-72 2 -126 36t-90 86t-54.5 115t-18.5 123q0 64 20 128.5t57.5 116t91 83.5t120.5 32q72 0 126 -34.5t90 -87.5t54.5 -116.5t18.5 -121.5q0 -65 -20 -129t-57.5 -115t-91 -83t-120.5 -33zM101 350q2 -55 18 -110.5t45.5 -100.5t73.5 -73.5t101 -28.5
q60 0 104.5 30t74 76.5t44.5 101.5t15 105q0 55 -16 110.5t-47 100.5t-75 73.5t-100 28.5q-60 0 -104.5 -30.5t-74.5 -76.5t-44.5 -101.5t-14.5 -104.5z" />
    <glyph glyph-name="one" unicode="1" horiz-adv-x="394" 
d="M375 46v-46h-311v46h134v614q-8 -12 -26 -26.5t-40.5 -28t-46.5 -22.5t-44 -9v47q26 0 53.5 14.5t50.5 32.5t37.5 33.5t15.5 17.5h50v-673h127z" />
    <glyph glyph-name="two" unicode="2" horiz-adv-x="574" 
d="M49 0v19q0 64 14 112t39.5 84t62 62t80.5 46q35 16 73.5 31t70.5 35.5t53 50.5t21 77q0 30 -10 58t-30.5 49.5t-52 34.5t-74.5 13q-42 0 -75 -11.5t-58.5 -28t-43 -35t-28.5 -33.5l-34 31q3 5 20 25t47.5 42t74.5 39.5t102 17.5q54 0 95 -17t68 -45t40.5 -64.5
t13.5 -75.5q0 -53 -22 -90t-56 -63t-73.5 -43.5t-75.5 -30.5q-60 -23 -96 -52t-55 -61.5t-25 -66t-6 -64.5h410v-46h-470z" />
    <glyph glyph-name="three" unicode="3" horiz-adv-x="584" 
d="M289 -9q-49 0 -91 12.5t-73.5 35.5t-51 55t-23.5 70l34 23q2 -29 18 -56t43 -47.5t63.5 -33t80.5 -12.5q41 0 76 11t60.5 31t40 47t14.5 60q0 35 -16.5 63.5t-47 48t-74 30t-96.5 10.5h-35v45h35q103 0 159 34.5t56 101.5q0 34 -14 62t-38.5 48.5t-57.5 31.5t-71 11
q-67 0 -116 -29.5t-69 -76.5l-37 32q13 28 35.5 50t52 37.5t63.5 24t71 8.5q50 0 93 -15t74 -41.5t48.5 -62.5t17.5 -78q0 -62 -36 -102t-105 -57q36 -7 65.5 -23.5t50.5 -40.5t32.5 -54t11.5 -63q0 -43 -19.5 -78t-52.5 -60t-77 -39t-94 -14z" />
    <glyph glyph-name="four" unicode="4" horiz-adv-x="562" 
d="M388 0v198h-363v44l378 468h35v-466h88v-46h-88v-198h-50zM82 244h310v386z" />
    <glyph glyph-name="five" unicode="5" horiz-adv-x="554" 
d="M280 449q48 0 90 -16.5t73.5 -46.5t49.5 -71.5t18 -90.5q0 -53 -19.5 -96t-52.5 -73.5t-77 -47.5t-93 -17q-76 0 -136 38.5t-91 101.5l37 21q27 -52 78 -83.5t112 -31.5q40 0 75 13.5t60.5 38.5t40.5 59.5t15 75.5q0 40 -14.5 73t-39.5 57t-58.5 37.5t-72.5 13.5
q-51 0 -95.5 -22.5t-73.5 -64.5h-49q1 7 5.5 28t9.5 50l13 63l14 70l37 182h340v-47h-302l-55 -281q29 32 71 49.5t90 17.5z" />
    <glyph glyph-name="six" unicode="6" horiz-adv-x="600" 
d="M556 233q0 -51 -19 -95t-53 -77t-79.5 -52t-97.5 -19q-55 0 -101.5 20t-80 57t-52.5 90.5t-19 121.5q0 112 19 194t53 136t81.5 80t104.5 26q72 0 127.5 -37t82.5 -101l-35 -27q-20 54 -68 87t-107 33q-47 0 -85.5 -22.5t-65.5 -66t-42.5 -106.5t-15.5 -144
q11 32 32 58.5t48.5 45.5t60.5 29.5t69 10.5q51 0 95 -19t77 -52t52 -77t19 -94zM308 35q41 0 77.5 15.5t63.5 42.5t43 63t16 77t-16 77t-43 63t-63.5 43t-77.5 16t-77.5 -16t-63.5 -43t-43 -63t-16 -77t16 -77t43 -63t63.5 -42.5t77.5 -15.5z" />
    <glyph glyph-name="seven" unicode="7" horiz-adv-x="510" 
d="M430 663h-400v47h480l-362 -710h-56z" />
    <glyph glyph-name="eight" unicode="8" horiz-adv-x="589" 
d="M537 194q0 -46 -20 -83t-53.5 -63.5t-78.5 -40.5t-94 -14q-53 0 -97.5 16.5t-76 44t-49 64.5t-17.5 79q0 35 13 65t34.5 53.5t48.5 40t55 25.5q-26 9 -48.5 24t-40 34t-27.5 43t-10 51q0 43 19.5 76t50.5 55.5t70.5 34t78.5 11.5t78 -11.5t70 -34t50.5 -55t19.5 -75.5
q0 -28 -10.5 -51.5t-27.5 -43t-40.5 -34.5t-48.5 -24q31 -11 59 -28.5t48 -41.5t32 -53.5t12 -63.5zM487 198q0 38 -17.5 68t-45.5 50.5t-62.5 31.5t-68.5 11q-35 0 -69 -11.5t-61 -32.5t-44 -51t-17 -67q0 -38 17.5 -67.5t45.5 -50t62.5 -31.5t68.5 -11t68.5 11.5
t61.5 32.5t44 50.5t17 66.5zM127 531q0 -32 15.5 -56t39.5 -41t53.5 -25.5t58.5 -8.5t59 9t54 26t39.5 41.5t15.5 56.5q0 31 -14.5 55.5t-38 41t-54 25.5t-62.5 9t-62 -9t-53 -26.5t-37 -42t-14 -55.5z" />
    <glyph glyph-name="nine" unicode="9" horiz-adv-x="600" 
d="M43 472q0 51 19.5 95t53 77t79 52t98.5 19q55 0 101 -20t80 -57t53 -91t19 -121q0 -111 -19 -193t-53 -136t-81.5 -80.5t-104.5 -26.5q-72 0 -127.5 37t-82.5 101l35 27q20 -54 68 -86.5t107 -32.5q47 0 85.5 22.5t66 66t42.5 106t15 143.5q-11 -32 -32 -58.5
t-48.5 -45.5t-60.5 -29.5t-69 -10.5q-51 0 -95.5 19t-77.5 52t-52 77t-19 94zM291 671q-41 0 -77 -16t-63 -43t-43 -63t-16 -76q0 -41 16 -77.5t43.5 -63.5t63.5 -43t77 -16t77.5 16t64 43t43.5 63t16 77q0 40 -16 76.5t-43.5 63.5t-64.5 43t-78 16z" />
    <glyph glyph-name="colon" unicode=":" horiz-adv-x="177" 
d="M67 432v85h43v-85h-43zM67 0v85h43v-85h-43z" />
    <glyph glyph-name="semicolon" unicode=";" horiz-adv-x="191" 
d="M71 432v85h44v-85h-44zM74 -81l14 79h-18v87h51v-87l-20 -79h-27z" />
    <glyph glyph-name="less" unicode="&#x3c;" horiz-adv-x="506" 
d="M34 273l418 251v-54l-346 -211l346 -211v-55l-418 250v30z" />
    <glyph glyph-name="equal" unicode="=" horiz-adv-x="437" 
d="M69 208v38h299v-38h-299zM69 306v38h299v-38h-299z" />
    <glyph glyph-name="greater" unicode="&#x3e;" horiz-adv-x="506" 
d="M472 243l-418 -250v55l345 211l-345 211v54l418 -251v-30z" />
    <glyph glyph-name="question" unicode="?" horiz-adv-x="473" 
d="M163 193q0 39 5.5 67t16.5 48.5t27 35t36 26.5q21 12 46 24.5t46.5 30t35.5 43.5t14 65q0 36 -12.5 63t-33 45t-47 26.5t-54.5 8.5q-57 0 -103 -30t-69 -78l-36 22q13 31 35.5 55t50 40.5t59 25t63.5 8.5q37 0 71.5 -12t61.5 -35.5t43 -59t16 -82.5q0 -42 -12.5 -71
t-33 -49t-46.5 -34.5t-52 -26.5q-21 -10 -36.5 -20.5t-26 -27.5t-16 -43t-5.5 -65h-44zM164 0v98h44v-98h-44z" />
    <glyph glyph-name="at" unicode="@" horiz-adv-x="834" 
d="M416 603q74 0 139.5 -28.5t115 -79t78 -120.5t28.5 -153q0 -14 -1.5 -37.5t-6.5 -50t-14.5 -53.5t-25.5 -48.5t-39.5 -35t-56.5 -13.5q-25 0 -40 7.5t-23.5 20.5t-12 30.5t-5.5 36.5q-27 -29 -71.5 -50t-96.5 -21q-69 0 -109 37t-40 94q0 37 16.5 62.5t43 40.5t59 21.5
t65.5 6.5q45 0 79 -8.5t51 -14.5q0 38 -6 69.5t-20 54t-39 35t-62 12.5q-38 0 -74.5 -12.5t-66.5 -35.5l-16 31q35 23 75.5 37.5t85.5 14.5q53 0 84.5 -18t48 -47.5t21.5 -66t5 -72.5v-138q0 -22 1.5 -40t7 -30.5t16 -19t27.5 -6.5q32 0 53.5 22t34 53.5t17.5 67.5t5 65
q0 73 -25.5 137.5t-70.5 111.5t-105.5 74.5t-130.5 27.5q-68 0 -129 -25.5t-107.5 -71.5t-73.5 -109t-27 -138q0 -72 25.5 -135.5t70.5 -110.5t106 -74t131 -27q80 0 153 38l12 -27q-79 -40 -165 -40q-75 0 -141 28.5t-115.5 79t-78 119t-28.5 149.5q0 84 30.5 152.5
t81.5 117.5t117.5 76t138.5 27zM480 64q22 10 35.5 23t21 27.5t9.5 29t2 29.5v42q-6 1 -18 4.5t-28.5 7.5t-38.5 7.5t-47 3.5q-27 0 -53 -5t-46.5 -16t-32.5 -29.5t-12 -46.5q0 -46 33 -72.5t81 -26.5q25 0 50 6.5t44 15.5z" />
    <glyph glyph-name="A" unicode="A" horiz-adv-x="675" 
d="M316 710h44l300 -710h-54l-99 234h-339l-99 -234h-55zM493 276l-155 372l-158 -372h313z" />
    <glyph glyph-name="B" unicode="B" horiz-adv-x="662" 
d="M616 184q0 -39 -15 -72.5t-41 -58.5t-61 -39t-74 -14h-332v710h331q37 0 67 -16t51 -41.5t32.5 -58t11.5 -65.5q0 -54 -27 -99t-75 -66q61 -18 96.5 -67.5t35.5 -112.5zM565 191q0 28 -10 54.5t-28 47t-42.5 32.5t-52.5 12h-288v-291h281q30 0 55.5 12t44 32.5t29.5 46.5
t11 54zM144 664v-284h260q29 0 53 12t41.5 31.5t27.5 45.5t10 53q0 29 -9.5 54.5t-26 45t-39.5 31t-51 11.5h-266z" />
    <glyph glyph-name="C" unicode="C" horiz-adv-x="690" 
d="M44 360q0 64 22.5 127.5t65.5 113.5t105.5 81.5t142.5 31.5q95 0 162 -43.5t100 -111.5l-42 -24q-19 37 -44.5 62t-55 40.5t-61.5 22.5t-63 7q-68 0 -120 -27.5t-88 -71.5t-54.5 -99.5t-18.5 -111.5q0 -63 22 -120t60 -100.5t90 -69.5t112 -26q32 0 66 8t65 25t58 43.5
t45 62.5l44 -21q-18 -40 -49 -71t-69 -52t-80.5 -31.5t-83.5 -10.5q-73 0 -133.5 32t-104.5 83.5t-68.5 117t-24.5 133.5z" />
    <glyph glyph-name="D" unicode="D" horiz-adv-x="713" 
d="M93 0v710h236q84 0 147.5 -28t105.5 -76t63 -112.5t21 -137.5q0 -81 -23.5 -146.5t-67.5 -112t-106.5 -72t-139.5 -25.5h-236zM615 356q0 67 -19 123.5t-55.5 97.5t-89.5 64t-122 23h-185v-618h185q70 0 123.5 23.5t89.5 65.5t54.5 98.5t18.5 122.5z" />
    <glyph glyph-name="E" unicode="E" 
d="M566 46v-46h-473v710h464v-46h-413v-279h361v-44h-361v-295h422z" />
    <glyph glyph-name="F" unicode="F" horiz-adv-x="594" 
d="M93 0v710h462v-46h-411v-282h349v-44h-349v-338h-51z" />
    <glyph glyph-name="G" unicode="G" horiz-adv-x="717" 
d="M616 111q-103 -116 -239 -116q-72 0 -133.5 31t-105.5 82t-69 116t-25 132q0 70 24.5 135t68 115t103.5 79.5t131 29.5q53 0 95.5 -11.5t76 -32t58 -49t41.5 -62.5l-42 -25q-36 70 -95.5 101.5t-134.5 31.5q-63 0 -114 -27t-87 -71t-55 -100t-19 -115q0 -63 22 -119.5
t60.5 -99.5t90.5 -68.5t112 -25.5q65 0 123.5 30t112.5 95v137h-161v41h205v-345h-44v111z" />
    <glyph glyph-name="H" unicode="H" horiz-adv-x="735" 
d="M643 710v-710h-51v340h-448v-340h-51v710h51v-324h448v324h51z" />
    <glyph glyph-name="I" unicode="I" horiz-adv-x="237" 
d="M93 0v710h51v-710h-51z" />
    <glyph glyph-name="J" unicode="J" horiz-adv-x="478" 
d="M32 74q25 -17 60 -27.5t78 -10.5q58 0 92 21t52 61t23.5 98.5t5.5 132.5v361h51v-361q0 -81 -7 -147.5t-30.5 -113.5t-67.5 -73t-119 -26q-90 0 -154 44z" />
    <glyph glyph-name="K" unicode="K" horiz-adv-x="635" 
d="M93 0v710h51v-431l414 431h59l-295 -311l310 -399h-58l-285 368l-145 -149v-219h-51z" />
    <glyph glyph-name="L" unicode="L" horiz-adv-x="581" 
d="M93 0v710h51v-664h424v-46h-475z" />
    <glyph glyph-name="M" unicode="M" horiz-adv-x="880" 
d="M736 0v614l-280 -479h-32l-280 479v-614h-51v710h51l296 -508l296 508h51v-710h-51z" />
    <glyph glyph-name="N" unicode="N" horiz-adv-x="773" 
d="M144 614v-614h-51v710h39l498 -625v625h51v-710h-47z" />
    <glyph glyph-name="O" unicode="O" horiz-adv-x="753" 
d="M376 -5q-74 0 -135 31t-105 81t-68 115t-24 133q0 71 25.5 136t70 115t105.5 79.5t132 29.5q74 0 135.5 -31.5t105 -82.5t67.5 -115.5t24 -130.5q0 -72 -25.5 -137t-70 -114.5t-105.5 -79t-132 -29.5zM95 355q0 -61 20.5 -117.5t58 -100t89.5 -69.5t114 -26
q64 0 115.5 27t88 71.5t56.5 100.5t20 114q0 61 -21 117.5t-58.5 100t-88.5 69.5t-112 26q-64 0 -116 -27t-89 -71.5t-57 -100.5t-20 -114z" />
    <glyph glyph-name="P" unicode="P" horiz-adv-x="621" 
d="M93 0v710h292q45 0 83 -19t65.5 -50.5t43 -71t15.5 -79.5q0 -43 -14.5 -83t-41 -71t-63.5 -49.5t-82 -18.5h-247v-268h-51zM144 315h245q35 0 63 14.5t47.5 39t30 56t10.5 65.5q0 35 -12.5 66.5t-34 55.5t-50 38t-60.5 14h-239v-349z" />
    <glyph glyph-name="Q" unicode="Q" horiz-adv-x="752" 
d="M576 67q-42 -34 -92.5 -53t-107.5 -19q-74 0 -135 31t-105 81t-68 115t-24 133q0 71 25.5 136t70 115t105.5 79.5t132 29.5q74 0 135.5 -31.5t105 -82.5t67.5 -115.5t24 -130.5q0 -75 -27.5 -142t-75.5 -118l79 -95h-53zM377 42q50 0 92 16.5t76 45.5l-84 102h53l60 -73
q40 45 61.5 103t21.5 119t-21 117.5t-58.5 100t-88.5 69.5t-112 26q-64 0 -116 -27t-89 -71.5t-57 -100.5t-20 -114q0 -61 20.5 -117.5t58 -100t89.5 -69.5t114 -26z" />
    <glyph glyph-name="R" unicode="R" horiz-adv-x="649" 
d="M93 0v710h295q45 0 83 -19t65.5 -50.5t43 -71t15.5 -79.5q0 -39 -12 -75.5t-34 -65.5t-53 -48t-68 -25l177 -276h-59l-172 268h-230v-268h-51zM144 315h249q34 0 62 15t48 39.5t30.5 56t10.5 64.5q0 34 -12.5 65.5t-34 55.5t-50 38.5t-61.5 14.5h-242v-349z" />
    <glyph glyph-name="S" unicode="S" horiz-adv-x="605" 
d="M506 592q-69 77 -195 77q-104 0 -151.5 -39.5t-47.5 -106.5q0 -34 12 -56.5t37.5 -38.5t64.5 -27t94 -23q57 -12 103.5 -26.5t79 -36.5t50 -54t17.5 -79t-18.5 -82t-52 -58.5t-80 -35.5t-103.5 -12q-166 0 -281 106l27 41q45 -47 110 -74.5t146 -27.5q93 0 145.5 34
t52.5 103q0 35 -14 59.5t-41.5 42.5t-69.5 31t-98 25q-57 12 -100.5 25.5t-73 34t-44.5 49.5t-15 73q0 48 18.5 85t51.5 62.5t79 38.5t102 13q69 0 123 -20.5t98 -62.5z" />
    <glyph glyph-name="T" unicode="T" horiz-adv-x="606" 
d="M589 664h-260v-664h-51v664h-260v46h571v-46z" />
    <glyph glyph-name="U" unicode="U" horiz-adv-x="756" 
d="M378 42q72 0 119.5 27t75 71t39 100t11.5 113v357h51v-357q0 -71 -15.5 -136t-50.5 -114.5t-91 -78.5t-138 -29q-85 0 -142 30.5t-91.5 81t-49 114.5t-14.5 132v357h51v-357q0 -59 11.5 -115t40 -99.5t75.5 -70t118 -26.5z" />
    <glyph glyph-name="V" unicode="V" horiz-adv-x="679" 
d="M69 710l270 -646l270 646h54l-300 -710h-47l-301 710h54z" />
    <glyph glyph-name="W" unicode="W" horiz-adv-x="1043" 
d="M365 705h50l106 -258l106 258h50l-125 -299l149 -346l272 650h56l-304 -710h-47l-156 365l-157 -365h-47l-303 710h55l273 -650l147 346z" />
    <glyph glyph-name="X" unicode="X" horiz-adv-x="628" 
d="M66 710l249 -323l248 323h58l-279 -360l271 -350h-58l-240 313l-241 -313h-59l271 350l-279 360h59z" />
    <glyph glyph-name="Y" unicode="Y" horiz-adv-x="647" 
d="M75 710l248 -393l249 393h57l-280 -442v-268h-51v270l-279 440h56z" />
    <glyph glyph-name="Z" unicode="Z" horiz-adv-x="627" 
d="M30 42l505 622h-498v46h558v-42l-501 -622h499v-46h-563v42z" />
    <glyph glyph-name="bracketleft" unicode="[" horiz-adv-x="247" 
d="M91 -40v780h101v-43h-53v-694h53v-43h-101z" />
    <glyph glyph-name="backslash" unicode="\" horiz-adv-x="548" 
d="M86 710l435 -710h-58l-436 710h59z" />
    <glyph glyph-name="bracketright" unicode="]" horiz-adv-x="247" 
d="M54 -40v43h54v694h-54v43h101v-780h-101z" />
    <glyph glyph-name="asciicircum" unicode="^" horiz-adv-x="526" 
d="M44 303l198 407h43l197 -407h-46l-172 356l-176 -356h-44z" />
    <glyph glyph-name="underscore" unicode="_" horiz-adv-x="519" 
d="M66 -46v46h386v-46h-386z" />
    <glyph glyph-name="grave" unicode="`" horiz-adv-x="213" 
d="M49 730h57l62 -85l-34 -16z" />
    <glyph glyph-name="a" unicode="a" horiz-adv-x="537" 
d="M206 -10q-36 0 -67 12.5t-54.5 34t-36.5 51t-13 63.5t16 62t44.5 48.5t68.5 32t88 11.5q42 0 84.5 -7.5t76.5 -20.5v51q0 74 -42 117.5t-114 43.5q-38 0 -80.5 -16t-86.5 -46l-19 34q100 68 190 68q94 0 148 -54.5t54 -150.5v-254q0 -25 22 -25v-45q-5 -1 -10.5 -1.5
t-9.5 -0.5q-20 0 -32 13.5t-14 32.5v43q-36 -47 -92 -72t-121 -25zM216 30q58 0 106.5 22t74.5 58q16 21 16 40v92q-36 14 -75 21t-81 7q-39 0 -71 -8.5t-55 -23.5t-35.5 -36.5t-12.5 -47.5t10 -49t28 -39.5t42.5 -26t52.5 -9.5z" />
    <glyph glyph-name="b" unicode="b" 
d="M321 -10q-61 0 -114 32t-83 82v-104h-46v730h50v-323q37 54 87.5 88t116.5 34q55 0 99.5 -23.5t75 -62t47 -87t16.5 -98.5q0 -54 -19 -102.5t-52.5 -85t-79 -58.5t-98.5 -22zM311 35q46 0 84 19t65.5 50.5t43 71.5t15.5 82q0 44 -14.5 84.5t-41 72t-63 50.5t-80.5 19
q-33 0 -62 -11.5t-53.5 -30.5t-44 -44t-32.5 -52v-172q3 -29 22 -54.5t45.5 -44t57.5 -29.5t58 -11z" />
    <glyph glyph-name="c" unicode="c" horiz-adv-x="545" 
d="M42 262q0 55 19 104t53 85t81 57t103 21q71 0 125 -32t81 -89l-49 -16q-23 43 -65.5 67.5t-93.5 24.5q-43 0 -80 -17t-64.5 -47t-43.5 -70.5t-16 -87.5t16.5 -88.5t44 -72t65 -48.5t79.5 -18q27 0 53.5 8t49 21t39 30.5t22.5 36.5l49 -14q-10 -27 -30.5 -50.5
t-48.5 -40.5t-62 -26.5t-70 -9.5q-55 0 -102 21.5t-81.5 59t-54 86.5t-19.5 105z" />
    <glyph glyph-name="d" unicode="d" horiz-adv-x="615" 
d="M292 -10q-54 0 -100 22.5t-79.5 60t-52 86t-18.5 100.5q0 54 18 103t50 86t75.5 59t95.5 22q34 0 64 -10t56 -26.5t47 -38.5t36 -47v323h50v-660q0 -25 21 -25v-45q-6 -1 -10 -1.5t-8 -0.5q-20 0 -34 15.5t-14 32.5v58q-32 -52 -85.5 -83t-111.5 -31zM301 35q27 0 58 11
t57.5 30.5t45.5 44.5t22 54v171q-11 28 -31.5 53.5t-46.5 44t-56 29.5t-58 11q-45 0 -82 -19.5t-63 -51t-40 -72t-14 -83.5q0 -45 16 -85t44.5 -71t66 -49t81.5 -18z" />
    <glyph glyph-name="e" unicode="e" horiz-adv-x="583" 
d="M299 -10q-55 0 -102 21.5t-81.5 59t-54 86.5t-19.5 105q0 55 19.5 103.5t53.5 85t80.5 57.5t100.5 21q55 0 102 -21.5t81 -58t53 -85t19 -102.5v-12q0 -8 -1 -10h-456q3 -45 21 -83.5t45.5 -66.5t63.5 -44t77 -16q27 0 53 7.5t48.5 20.5t40 31.5t27.5 40.5l44 -12
q-11 -28 -32.5 -51.5t-50 -40.5t-62.5 -26.5t-70 -9.5zM503 280q-3 46 -20.5 84t-45 65.5t-63.5 43t-77 15.5t-77 -15.5t-63.5 -43t-44 -66t-19.5 -83.5h410z" />
    <glyph glyph-name="f" unicode="f" horiz-adv-x="318" 
d="M101 0v479h-73v41h73v17q0 96 39 149.5t108 53.5q30 0 58 -9t46 -24l-18 -36q-14 11 -34.5 18t-42.5 7q-51 0 -78.5 -40.5t-27.5 -117.5v-18h148v-41h-148v-479h-50z" />
    <glyph glyph-name="g" unicode="g" 
d="M288 -8q-54 0 -99 22.5t-77.5 60t-51 85.5t-18.5 99q0 53 17.5 102t49.5 86.5t76.5 59.5t98.5 22q68 0 118.5 -35.5t85.5 -86.5v113h46v-530q0 -53 -20 -93t-53.5 -66.5t-78 -40t-93.5 -13.5q-45 0 -81 8.5t-63.5 24t-49 38t-37.5 49.5l34 23q31 -53 84 -77.5t113 -24.5
q40 0 75.5 11t62 32.5t42 53.5t15.5 75v114q-32 -51 -85 -81.5t-111 -30.5zM300 35q33 0 64.5 12.5t57 32.5t42 45t20.5 50v171q-12 30 -32 55.5t-45.5 43.5t-55 28.5t-59.5 10.5q-47 0 -84 -20t-62.5 -52t-39 -72.5t-13.5 -81.5q0 -45 16 -85t44 -71t66 -49t81 -18z" />
    <glyph glyph-name="h" unicode="h" horiz-adv-x="576" 
d="M503 0h-50v290q0 193 -129 193q-32 0 -62.5 -12t-57 -34t-46.5 -51.5t-30 -63.5v-322h-50v730h50v-334q32 61 88.5 97t121.5 36q43 0 74 -16t51.5 -46t30 -72.5t9.5 -95.5v-299z" />
    <glyph glyph-name="i" unicode="i" horiz-adv-x="207" 
d="M78 0v520h50v-520h-50zM78 638v92h50v-92h-50z" />
    <glyph glyph-name="j" unicode="j" horiz-adv-x="214" 
d="M-10 -177q-32 0 -59.5 8.5t-49.5 28.5l27 33q17 -14 37 -19t40 -5q19 0 37 7.5t32 21t23 32t9 40.5v550h50v-548q0 -33 -12.5 -60t-33.5 -47t-47 -31t-53 -11zM86 638v92h50v-92h-50z" />
    <glyph glyph-name="k" unicode="k" horiz-adv-x="522" 
d="M454 0l-203 278l-123 -113v-165h-50v730h50v-510l316 299h58l-217 -211l224 -308h-55z" />
    <glyph glyph-name="l" unicode="l" horiz-adv-x="259" 
d="M82 730h51v-627q0 -29 16.5 -46t45.5 -17q11 0 26.5 2.5t28.5 7.5l10 -40q-17 -7 -42 -11.5t-43 -4.5q-42 0 -67.5 25.5t-25.5 68.5v642z" />
    <glyph glyph-name="m" unicode="m" horiz-adv-x="915" 
d="M842 0h-50v290q0 99 -30.5 146t-93.5 47q-32 0 -61 -12t-53 -33.5t-41.5 -51t-27.5 -65.5v-321h-50v290q0 100 -30 146.5t-93 46.5q-32 0 -60.5 -11.5t-52.5 -33t-42.5 -51t-28.5 -65.5v-322h-50v520h47v-124q32 63 84 98t115 35q66 0 107 -39t49 -102q74 141 204 141
q85 0 121.5 -60.5t36.5 -169.5v-299z" />
    <glyph glyph-name="n" unicode="n" horiz-adv-x="576" 
d="M503 0h-50v290q0 101 -28.5 147t-90.5 46q-33 0 -65.5 -12t-60.5 -34t-49 -51.5t-31 -63.5v-322h-50v520h47v-124q16 30 39.5 54.5t53 42t62.5 27t68 9.5q85 0 120 -59.5t35 -170.5v-299z" />
    <glyph glyph-name="o" unicode="o" horiz-adv-x="592" 
d="M296 -10q-55 0 -101.5 21.5t-80.5 58.5t-53 86t-19 103q0 55 19.5 104t53.5 86t80.5 58.5t100.5 21.5t100 -21.5t80.5 -58.5t54 -86t19.5 -104q0 -54 -19.5 -103t-53.5 -86t-80.5 -58.5t-100.5 -21.5zM92 257q0 -46 16 -86.5t43.5 -70.5t64.5 -47.5t79 -17.5t79 17.5
t65 48.5t44 71.5t16 87.5q0 46 -16 86.5t-44 71t-64.5 48.5t-78.5 18t-79 -18t-64.5 -49t-44 -72.5t-16.5 -87.5z" />
    <glyph glyph-name="p" unicode="p" 
d="M332 -10q-67 0 -119.5 35.5t-84.5 86.5v-325h-50v733h46v-104q32 50 84.5 81.5t112.5 31.5q54 0 100 -23t79 -60.5t51.5 -86.5t18.5 -100q0 -54 -17 -103t-48.5 -86t-75.5 -58.5t-97 -21.5zM320 35q45 0 82 19t63 50.5t40 72t14 82.5q0 45 -16 85.5t-44.5 71.5
t-66.5 49.5t-81 18.5q-27 0 -57.5 -11.5t-57.5 -31t-46 -44.5t-22 -53v-171q13 -29 33 -54t45 -44t54 -29.5t60 -10.5z" />
    <glyph glyph-name="q" unicode="q" 
d="M280 -10q-54 0 -97.5 22.5t-75 60t-48.5 86t-17 100.5q0 54 19.5 103t53 86t79 59t97.5 22q61 0 114 -32.5t83 -81.5v105h46v-661q0 -25 21 -26v-44q-5 -1 -9 -1h-8q-23 0 -38.5 14.5t-15.5 38.5v271q-82 -122 -204 -122zM293 35q33 0 61.5 11t52.5 29t43.5 42.5
t33.5 51.5v170q-4 29 -22 55t-44.5 46t-57.5 32t-61 12q-45 0 -83 -19.5t-65.5 -51t-42.5 -72.5t-15 -83q0 -45 15 -85t41.5 -71t63 -49t80.5 -18z" />
    <glyph glyph-name="r" unicode="r" horiz-adv-x="341" 
d="M324 475q-70 -2 -122.5 -41.5t-73.5 -108.5v-325h-50v520h48v-128q27 55 71.5 89.5t95.5 39.5q10 1 18 1h13v-47z" />
    <glyph glyph-name="s" unicode="s" horiz-adv-x="481" 
d="M243 -10q-60 0 -115 20t-96 60l25 34q42 -38 87 -56t99 -18q68 0 109.5 28.5t41.5 79.5q0 24 -10.5 40.5t-31.5 28t-52 20.5t-72 19q-44 10 -76.5 20t-53.5 24t-31.5 34t-10.5 51q0 39 15 68t41.5 48t61 28.5t73.5 9.5q61 0 108 -20.5t73 -52.5l-28 -27q-26 30 -67.5 45
t-88.5 15q-29 0 -54.5 -6t-44.5 -19t-30 -33.5t-11 -48.5q0 -23 7.5 -37t24 -24t42.5 -17.5t62 -16.5q49 -12 87 -23t63.5 -27t39 -38t13.5 -56q0 -70 -54.5 -111.5t-145.5 -41.5z" />
    <glyph glyph-name="t" unicode="t" horiz-adv-x="320" 
d="M310 25q-4 -2 -13.5 -7.5t-24 -10.5t-32.5 -9t-39 -4t-39.5 6t-32.5 18t-22 29t-8 40v392h-73v41h73v178h50v-178h121v-41h-121v-380q0 -29 20 -43.5t45 -14.5q31 0 53.5 10.5t27.5 13.5z" />
    <glyph glyph-name="u" unicode="u" horiz-adv-x="587" 
d="M239 -10q-166 0 -166 230v300h50v-293q0 -192 131 -192q33 0 64 11.5t58 32t47.5 49.5t32.5 64v328h50v-450q0 -25 21 -25v-45q-5 -1 -9 -1h-6q-20 0 -35.5 12.5t-15.5 33.5v78q-34 -63 -93.5 -98t-128.5 -35z" />
    <glyph glyph-name="v" unicode="v" horiz-adv-x="528" 
d="M238 0l-217 520h52l192 -470l193 470h49l-217 -520h-52z" />
    <glyph glyph-name="w" unicode="w" horiz-adv-x="806" 
d="M737 520h50l-225 -520h-42l-117 275l-117 -275h-42l-225 520h49l199 -465l109 256l-88 208h43l72 -172l71 172h44l-88 -208l109 -256z" />
    <glyph glyph-name="x" unicode="x" horiz-adv-x="496" 
d="M72 520l168 -215l8 -14l8 14l167 215h56l-202 -261l201 -259h-55l-167 214l-8 13l-8 -13l-167 -214h-55l201 259l-202 261h55z" />
    <glyph glyph-name="y" unicode="y" horiz-adv-x="540" 
d="M113 -176q5 -1 15 -1t18.5 1t16.5 5q6 3 11 8.5t14 22.5t23 50l38 90l-232 520h52l207 -471l193 471h49l-285 -684q-11 -28 -35.5 -43.5t-66.5 -15.5h-9q-4 0 -9 1v46z" />
    <glyph glyph-name="z" unicode="z" horiz-adv-x="490" 
d="M32 36l368 445h-362v39h418v-36l-367 -445h365v-39h-422v36z" />
    <glyph glyph-name="braceleft" unicode="{" horiz-adv-x="248" 
d="M141 697v-277q0 -10 -4.5 -28t-20.5 -32q16 -14 20.5 -32.5t4.5 -27.5v-288h55v-43h-79q-8 0 -15.5 6.5t-7.5 23.5v290q0 18 -8.5 34t-26.5 18v40q10 0 17 6t11 14t5.5 16.5t1.5 13.5v279q0 20 9 25t14 5h79v-43h-55z" />
    <glyph glyph-name="bar" unicode="|" horiz-adv-x="223" 
d="M89 -130v905h45v-905h-45z" />
    <glyph glyph-name="braceright" unicode="}" horiz-adv-x="248" 
d="M52 697v43h79q4 0 13.5 -5t9.5 -25v-279q0 -5 1.5 -13.5t5.5 -16.5t10.5 -14t17.5 -6v-40q-19 -2 -27 -18t-8 -34v-290q0 -17 -7.5 -23.5t-15.5 -6.5h-79v43h55v288q0 9 4.5 27.5t20.5 32.5q-16 14 -20.5 32t-4.5 28v277h-55z" />
    <glyph glyph-name="asciitilde" unicode="~" horiz-adv-x="493" 
d="M68 245q0 3 5 18.5t17 32.5t30.5 30.5t45.5 13.5q22 0 41.5 -9.5t38.5 -20.5t37.5 -20.5t38.5 -9.5q19 0 32 7.5t21.5 17t12.5 18t4 10.5h34q0 -2 -5 -15.5t-17 -30t-32 -29.5t-50 -13q-24 0 -45 9t-40 20.5t-36.5 20.5t-34.5 9t-29 -9t-20 -20t-11.5 -20t-3.5 -10h-34z
" />
    <glyph glyph-name="uni00A0" unicode="&#xa0;" horiz-adv-x="257" 
 />
    <glyph glyph-name="exclamdown" unicode="&#xa1;" horiz-adv-x="242" 
d="M146 498v-499h-50v499h50zM146 716v-102h-50v102h50z" />
    <glyph glyph-name="cent" unicode="&#xa2;" horiz-adv-x="554" 
d="M276 -120v111q-51 4 -93.5 28.5t-73.5 61.5t-48 83t-17 94q0 51 16.5 98t47 83.5t73 60.5t95.5 28v117h31v-117q76 -2 124.5 -34t74.5 -86l-48 -16q-25 45 -64 67t-87 24v-447q21 0 46 7t47.5 19.5t40 30t23.5 38.5l49 -14q-11 -32 -34.5 -55.5t-52.5 -39.5t-60.5 -24
t-58.5 -8v-110h-31zM95 258q0 -41 13.5 -78.5t38 -67.5t57.5 -49.5t72 -24.5v443q-43 -3 -76.5 -23.5t-57 -52t-35.5 -70t-12 -77.5z" />
    <glyph glyph-name="sterling" unicode="&#xa3;" horiz-adv-x="487" 
d="M50 370h100l-24 43q-13 21 -23.5 42t-17.5 43.5t-7 47.5q0 35 14 65.5t37.5 53.5t55.5 36.5t68 13.5q53 0 99 -28.5t75 -76.5l-32 -31q-24 43 -63 68t-81 25q-26 0 -48.5 -10t-39.5 -27.5t-27 -40.5t-10 -50q0 -23 7 -44.5t18 -42.5t24 -42.5t24 -44.5h176v-41h-159
q6 -18 9.5 -37t3.5 -40q0 -26 -5.5 -50t-18.5 -49t-34 -52t-51 -60q37 8 72 8q22 0 40.5 -3t35.5 -6.5t33.5 -6.5t35.5 -3q20 0 41.5 4.5t50.5 14.5l13 -40q-53 -24 -108 -24q-22 0 -41.5 3.5t-38.5 7.5t-38.5 7.5t-42.5 3.5t-51 -4t-52 -10l-15 37q37 37 61.5 67t39.5 55.5
t21 48.5t6 48q0 22 -4 42t-11 38h-118v41z" />
    <glyph glyph-name="currency" unicode="&#xa4;" horiz-adv-x="535" 
d="M152 475q23 20 52 31.5t63 11.5t63.5 -12t52.5 -32l70 71l27 -26l-71 -71q17 -23 27 -51.5t10 -60.5q0 -63 -39 -113l73 -71l-24 -24l-73 70q-23 -20 -52.5 -31t-63.5 -11t-63 10.5t-52 30.5l-71 -69l-24 24l71 70q-39 50 -39 114q0 65 37 113l-69 70l26 26zM132 335
q0 -30 10.5 -55.5t29 -45t43 -30.5t52.5 -11t52.5 11.5t43 31t29 45.5t10.5 56t-10.5 56t-29 45.5t-43 30.5t-52.5 11t-52.5 -11.5t-43 -31t-29 -46t-10.5 -56.5z" />
    <glyph glyph-name="yen" unicode="&#xa5;" horiz-adv-x="667" 
d="M412 357h88v-38h-110l-32 -51v-26h142v-37h-142v-205h-51v205h-141v37h141v28l-30 49h-111v38h89l-227 353h57l248 -393l249 393h56z" />
    <glyph glyph-name="brokenbar" unicode="&#xa6;" horiz-adv-x="226" 
d="M136 280v-410h-45v410h45zM136 775v-410h-45v410h45z" />
    <glyph glyph-name="section" unicode="&#xa7;" horiz-adv-x="497" 
d="M405 190q49 -30 49 -106q0 -43 -18.5 -75.5t-47 -54t-63 -32t-67.5 -10.5q-34 0 -62.5 7.5t-52.5 20t-43.5 28.5t-35.5 32l33 31q38 -36 76.5 -53.5t83.5 -17.5q26 0 52 8.5t47 24t34 38.5t13 52q0 31 -12.5 50.5t-32.5 30t-45 14.5t-49 5q-41 2 -76 12t-60.5 29.5
t-40.5 48.5t-15 68q0 27 8.5 51t20.5 38q-24 16 -39.5 47t-15.5 72q0 38 17 68.5t44 52.5t61.5 33.5t69.5 11.5q71 0 111.5 -25.5t65.5 -62.5l-40 -18q-9 18 -24.5 29.5t-34 18t-38.5 9.5t-38 3q-26 0 -52 -8t-46 -23.5t-32.5 -38t-12.5 -50.5q0 -31 11 -52.5t30 -35
t45.5 -19.5t57.5 -6q36 0 71.5 -8t63 -26t45 -47t17.5 -71q0 -29 -9.5 -54t-23.5 -40zM121 336q0 -35 12.5 -56t32.5 -33t45.5 -17t52 -8t51 -6.5t42.5 -10.5q15 13 24 34.5t9 44.5q0 31 -14 52t-35.5 34t-47.5 18t-50 5q-55 0 -95 17q-12 -12 -19.5 -32.5t-7.5 -41.5z" />
    <glyph glyph-name="dieresis" unicode="&#xa8;" horiz-adv-x="294" 
d="M57 640v88h44v-88h-44zM193 640v88h44v-88h-44z" />
    <glyph glyph-name="copyright" unicode="&#xa9;" horiz-adv-x="829" 
d="M414 -7q-78 0 -145 27.5t-116 76t-76.5 114.5t-27.5 144q0 77 27.5 143t76.5 114t116 75.5t145 27.5q79 0 146 -27.5t116 -75.5t76.5 -114t27.5 -143q0 -78 -27.5 -144t-76.5 -114.5t-116 -76t-146 -27.5zM414 21q71 0 132.5 24t106.5 68t71 104.5t26 134.5
q0 72 -25 133.5t-70 106.5t-106.5 70t-134.5 25q-72 0 -133.5 -25t-106 -69.5t-70 -105.5t-25.5 -133q0 -71 25 -132t70 -105.5t106.5 -70t133.5 -25.5zM421 124q-43 0 -84 16t-73 46t-51.5 73t-19.5 96q0 41 13.5 82.5t40.5 75t69 54.5t99 21q62 0 112 -27t71 -80l-48 -16
q-11 24 -27.5 39.5t-35.5 24t-38 11.5t-34 3q-44 0 -76 -17t-53 -44t-31.5 -60.5t-10.5 -66.5q0 -45 16.5 -79.5t42 -58t56 -36t59.5 -12.5q19 0 40.5 5.5t41 16t35 26t23.5 34.5l48 -14q-6 -17 -21.5 -36.5t-39.5 -36.5t-55.5 -28.5t-68.5 -11.5z" />
    <glyph glyph-name="ordfeminine" unicode="&#xaa;" horiz-adv-x="431" 
d="M168 348q-25 0 -47 8.5t-38 23t-25 34.5t-9 43q0 47 41.5 76.5t107.5 29.5q29 0 57 -4.5t50 -13.5v31q0 45 -26.5 71.5t-74.5 26.5q-53 0 -115 -41l-17 31q70 46 135 46q69 0 108 -36.5t39 -103.5v-153q0 -19 17 -20v-43q-8 -1 -13 -1h-11q-32 3 -35 34l-1 26
q-25 -32 -62.5 -48.5t-80.5 -16.5zM180 386q35 0 66 12.5t47 33.5q12 13 12 27v55q-23 10 -48 13.5t-51 3.5q-50 0 -80 -19.5t-30 -51.5t24 -53t60 -21z" />
    <glyph glyph-name="guillemotleft" unicode="&#xab;" horiz-adv-x="552" 
d="M41 273l244 175v-45l-202 -144l202 -143v-45l-244 172v30zM243 273l244 175v-45l-202 -144l202 -143v-45l-244 172v30z" />
    <glyph glyph-name="logicalnot" unicode="&#xac;" horiz-adv-x="574" 
d="M504 354v-223h-45v177h-381v46h426z" />
    <glyph glyph-name="uni00AD" unicode="&#xad;" horiz-adv-x="559" 
d="M67 249v46h425v-46h-425z" />
    <glyph glyph-name="registered" unicode="&#xae;" horiz-adv-x="829" 
d="M414 -7q-78 0 -145 27.5t-116 76t-76.5 114.5t-27.5 144q0 77 27.5 143t76.5 114t116 75.5t145 27.5q79 0 146 -27.5t116 -75.5t76.5 -114t27.5 -143q0 -78 -27.5 -144t-76.5 -114.5t-116 -76t-146 -27.5zM414 21q71 0 132.5 24t106.5 68t71 105.5t26 136.5
q0 71 -25 131.5t-70 105t-106.5 70t-134.5 25.5q-72 0 -133.5 -25.5t-106 -70t-69.5 -105t-25 -131.5q0 -72 25 -133t69.5 -105.5t106 -70t133.5 -25.5zM265 581h190q29 0 53 -12.5t41.5 -32.5t27.5 -45.5t10 -51.5q0 -25 -8 -48t-22 -41.5t-34 -31t-44 -15.5l113 -178h-45
l-110 173h-132v-173h-40v456zM456 334q45 0 68.5 31t23.5 74q0 45 -27 74.5t-69 29.5h-147v-209h151z" />
    <glyph glyph-name="macron" unicode="&#xaf;" horiz-adv-x="390" 
d="M53 672v37h285v-37h-285z" />
    <glyph glyph-name="degree" unicode="&#xb0;" horiz-adv-x="261" 
d="M53 647q0 32 22.5 54.5t54.5 22.5q33 0 55.5 -22.5t22.5 -54.5q0 -34 -22.5 -56.5t-55.5 -22.5q-32 0 -54.5 23t-22.5 56zM98 679q-13 -15 -13 -33q0 -19 13 -32q6 -6 14 -10t18 -4t18.5 4t14.5 10q13 13 13 32q0 18 -13 33q-12 13 -33 13q-20 0 -32 -13z" />
    <glyph glyph-name="plusminus" unicode="&#xb1;" horiz-adv-x="468" 
d="M77 70v43h314v-43h-314zM391 382v-43h-134v-144h-46v144h-134v43h134v144h46v-144h134z" />
    <glyph glyph-name="twosuperior" unicode="&#xb2;" horiz-adv-x="381" 
d="M37 413q0 38 8 66.5t24 49.5t39.5 36t53.5 27q23 9 47.5 17t44.5 19.5t33 28t13 40.5q0 32 -26 56t-80 24q-26 0 -46.5 -6t-36.5 -14.5t-27 -18.5t-18 -18l-24 24q3 4 14 15t30.5 22.5t47.5 20.5t65 9q35 0 61.5 -9t44 -25t26 -36.5t8.5 -44.5q0 -31 -14.5 -52.5t-36 -36
t-46 -24t-45.5 -15.5q-37 -12 -58 -27t-32 -31t-14 -32.5t-3 -30.5h247v-34h-300z" />
    <glyph glyph-name="threesuperior" unicode="&#xb3;" horiz-adv-x="386" 
d="M190 407q-63 0 -105 25t-48 67l23 21q1 -14 11.5 -28t27.5 -25t40.5 -17.5t50.5 -6.5q25 0 47 5.5t38 15.5t25.5 24t9.5 31q0 37 -40.5 58t-108.5 21h-23v32h23q64 0 99.5 17.5t35.5 52.5q0 18 -9 32t-24 24.5t-35.5 16t-43.5 5.5q-42 0 -72.5 -15.5t-44.5 -41.5l-25 26
q17 29 56 46.5t86 17.5q32 0 59.5 -8.5t47.5 -23t31.5 -34.5t11.5 -43q0 -69 -90 -87q47 -8 74.5 -35.5t27.5 -65.5q0 -24 -12.5 -44t-33.5 -34t-49.5 -21.5t-60.5 -7.5z" />
    <glyph glyph-name="acute" unicode="&#xb4;" horiz-adv-x="213" 
d="M84 629l-35 16l61 85h58z" />
    <glyph glyph-name="mu" unicode="&#xb5;" horiz-adv-x="613" 
d="M85 520h50v-293q0 -192 132 -192q33 0 64 11.5t58 32t47.5 49.5t32.5 64v328h50v-450q0 -25 21 -25v-45q-5 -1 -8 -1h-7q-22 0 -36.5 13.5t-14.5 35.5v75q-15 -29 -37 -53.5t-49.5 -42t-58.5 -27.5t-64 -10q-51 0 -83.5 24.5t-48.5 67.5v-294h-48v732z" />
    <glyph glyph-name="paragraph" unicode="&#xb6;" horiz-adv-x="588" 
d="M33 473q0 112 74 174.5t208 62.5h226v-41h-70v-749h-45v317h-80v-317h-45v317q-62 1 -111.5 17.5t-84.5 47t-53.5 73.5t-18.5 98zM78 474q0 -50 18 -86t48.5 -59.5t71 -35.5t85.5 -14v390q-109 -1 -166 -52.5t-57 -142.5zM426 669h-80v-390h80v390z" />
    <glyph glyph-name="periodcentered" unicode="&#xb7;" horiz-adv-x="177" 
d="M67 248v101h44v-101h-44z" />
    <glyph glyph-name="cedilla" unicode="&#xb8;" horiz-adv-x="271" 
d="M37 -125q14 -7 37.5 -13t49.5 -6q58 0 58 37q0 20 -13.5 28t-35.5 8q-21 0 -44 -5t-37 -9l56 100l27 -12l-34 -56q9 4 20.5 5t19.5 1q34 0 53 -15t19 -44q0 -32 -24 -48.5t-69 -16.5q-29 0 -53.5 5.5t-43.5 13.5z" />
    <glyph glyph-name="onesuperior" unicode="&#xb9;" horiz-adv-x="264" 
d="M243 447v-35h-194v35h82v322q-5 -6 -16.5 -14.5t-25 -16t-28 -12.5t-26.5 -5v35q16 0 32.5 8t30.5 18t23 19l10 10h36v-364h76z" />
    <glyph glyph-name="ordmasculine" unicode="&#xba;" horiz-adv-x="449" 
d="M224 348q-39 0 -71.5 14.5t-56.5 39.5t-37 57.5t-13 68.5q0 37 13.5 70t37 58t56 39.5t71.5 14.5t71.5 -14.5t56.5 -39.5t37.5 -58t13.5 -70q0 -36 -13.5 -68.5t-37 -57.5t-56.5 -39.5t-72 -14.5zM90 527q0 -29 10.5 -55t28.5 -45.5t42.5 -30.5t52.5 -11t52.5 11.5t43 31
t29 45.5t10.5 56t-10.5 56t-29 45t-43 30t-52.5 11q-27 0 -51.5 -11t-43 -30.5t-29 -46t-10.5 -56.5z" />
    <glyph glyph-name="guillemotright" unicode="&#xbb;" horiz-adv-x="552" 
d="M511 243l-244 -172v45l202 143l-202 144v45l244 -175v-30zM310 243l-245 -172v45l203 143l-203 144v45l245 -175v-30z" />
    <glyph glyph-name="onequarter" unicode="&#xbc;" horiz-adv-x="795" 
d="M668 0v106h-230v32l240 255h25v-253h57v-34h-57v-106h-35zM478 140h190v202zM120 21l279 344l274 348l28 -23l-279 -345l-275 -348zM254 367v-35h-194v35h82v322q-5 -6 -16.5 -14.5t-25 -16t-28 -12.5t-26.5 -5v35q16 0 32.5 8t30.5 18t23 19l10 10h36v-364h76z" />
    <glyph glyph-name="onehalf" unicode="&#xbd;" horiz-adv-x="838" 
d="M497 0q0 76 32 116.5t92 63.5q22 9 46 17t43.5 19t32 27.5t12.5 40.5q0 32 -24.5 54.5t-78.5 22.5q-26 0 -45.5 -6t-34.5 -14.5t-26 -18.5t-18 -19l-26 28q3 4 14 15t30 22.5t47 20.5t64 9q69 0 103.5 -33.5t34.5 -81.5q0 -31 -14 -52t-35 -35.5t-45 -24t-45 -15.5
q-36 -11 -57 -24.5t-32 -29.5t-14 -33t-3 -35h246v-34h-299zM89 21l279 344l274 348l28 -23l-279 -345l-275 -348zM256 367v-35h-194v35h82v322q-5 -6 -16.5 -14.5t-25 -16t-28 -12.5t-26.5 -5v35q16 0 32.5 8t30.5 18t23 19l10 10h36v-364h76z" />
    <glyph glyph-name="threequarters" unicode="&#xbe;" horiz-adv-x="810" 
d="M196 327q-63 0 -105 25t-48 67l23 21q1 -14 11.5 -28t27.5 -25t40.5 -17.5t50.5 -6.5q25 0 47 5.5t38 15.5t25.5 24t9.5 31q0 37 -40.5 58t-108.5 21h-23v32h23q64 0 99.5 17.5t35.5 52.5q0 18 -9 32t-24 24.5t-35.5 16t-43.5 5.5q-42 0 -72.5 -15.5t-44.5 -41.5l-25 26
q17 29 56 46.5t86 17.5q32 0 59.5 -8.5t47.5 -23t31.5 -34.5t11.5 -43q0 -69 -90 -87q47 -8 74.5 -35.5t27.5 -65.5q0 -24 -12.5 -44t-33.5 -34t-49.5 -21.5t-60.5 -7.5zM679 0v106h-230v32l240 255h25v-253h57v-34h-57v-106h-35zM489 140h190v202zM155 21l279 344l274 348
l28 -23l-279 -345l-275 -348z" />
    <glyph glyph-name="questiondown" unicode="&#xbf;" horiz-adv-x="466" 
d="M306 313q0 -39 -5.5 -67t-16.5 -48.5t-27 -35t-36 -26.5q-21 -12 -46 -24.5t-46.5 -30t-35.5 -43.5t-14 -65q0 -36 12.5 -63t33 -45t47 -26.5t54.5 -8.5q57 0 103 30t69 78l36 -22q-14 -31 -36 -55t-49.5 -40.5t-59 -25t-63.5 -8.5q-37 0 -71.5 12t-61.5 35.5t-43 59
t-16 82.5q0 42 12.5 71t33 49t46.5 34.5t52 26.5q21 10 36.5 20.5t26 27.5t16 43t5.5 65h44zM305 506v-98h-44v98h44z" />
    <glyph glyph-name="Agrave" unicode="&#xc0;" horiz-adv-x="675" 
d="M316 710h44l300 -710h-54l-99 234h-339l-99 -234h-55zM493 276l-155 372l-158 -372h313zM254 918h57l62 -85l-34 -16z" />
    <glyph glyph-name="Aacute" unicode="&#xc1;" horiz-adv-x="675" 
d="M316 710h44l300 -710h-54l-99 234h-339l-99 -234h-55zM493 276l-155 372l-158 -372h313zM337 816l-35 16l61 85h58z" />
    <glyph glyph-name="Acircumflex" unicode="&#xc2;" horiz-adv-x="675" 
d="M316 710h44l300 -710h-54l-99 234h-339l-99 -234h-55zM493 276l-155 372l-158 -372h313zM223 836l96 81h37l97 -81l-30 -17l-85 63l-85 -63z" />
    <glyph glyph-name="Atilde" unicode="&#xc3;" horiz-adv-x="675" 
d="M316 710h44l300 -710h-54l-99 234h-339l-99 -234h-55zM493 276l-155 372l-158 -372h313zM399 834q-22 0 -39 6t-31 13.5t-27.5 14t-28.5 6.5q-17 0 -27 -7t-15 -15.5t-7 -16t-2 -9.5h-34q0 4 3 17.5t12.5 28t26 26t43.5 11.5q20 0 35.5 -6.5t29.5 -14t28.5 -13.5t33.5 -6
q20 0 31.5 7t17 15.5t7 16t1.5 9.5h34q0 -5 -3.5 -18.5t-13 -27.5t-27.5 -25.5t-48 -11.5z" />
    <glyph glyph-name="Adieresis" unicode="&#xc4;" horiz-adv-x="675" 
d="M316 710h44l300 -710h-54l-99 234h-339l-99 -234h-55zM493 276l-155 372l-158 -372h313zM248 828v88h44v-88h-44zM384 828v88h44v-88h-44z" />
    <glyph glyph-name="Aring" unicode="&#xc5;" horiz-adv-x="675" 
d="M316 710h44l300 -710h-54l-99 234h-339l-99 -234h-55zM493 276l-155 372l-158 -372h313zM269 855q0 27 19.5 44.5t48.5 17.5t48.5 -17.5t19.5 -44.5q0 -28 -19.5 -45.5t-48.5 -17.5t-48.5 17.5t-19.5 45.5zM337 894q-17 0 -28.5 -10.5t-11.5 -28.5q0 -17 11.5 -28.5
t28.5 -11.5q16 0 28.5 11.5t12.5 28.5q0 18 -12 28.5t-29 10.5z" />
    <glyph glyph-name="AE" unicode="&#xc6;" horiz-adv-x="962" 
d="M434 710h474v-46h-410v-278h356v-47h-356v-293h419v-46h-469v234h-267l-151 -234h-57zM445 280v366l-240 -366h240z" />
    <glyph glyph-name="Ccedilla" unicode="&#xc7;" horiz-adv-x="687" 
d="M296 -125q14 -7 37.5 -13t49.5 -6q58 0 58 37q0 20 -13.5 28t-35.5 8q-21 0 -44 -5t-37 -9l44 80q-70 3 -128 36t-99.5 84t-64.5 115t-23 130q0 64 22.5 127.5t65.5 113.5t105.5 81.5t142.5 31.5q95 0 162 -43.5t100 -111.5l-42 -24q-19 37 -44.5 62t-55 40.5t-61.5 22.5
t-63 7q-68 0 -120 -27.5t-88 -71.5t-54.5 -99.5t-18.5 -111.5q0 -63 22 -120t60 -100.5t90 -69.5t112 -26q32 0 66 8t65 25t58 43.5t45 62.5l44 -21q-17 -38 -45.5 -67.5t-64 -50.5t-75.5 -32.5t-79 -13.5l-29 -48q9 4 20.5 5t19.5 1q34 0 53 -15t19 -44q0 -32 -24 -48.5
t-69 -16.5q-29 0 -53.5 5.5t-43.5 13.5z" />
    <glyph glyph-name="Egrave" unicode="&#xc8;" 
d="M566 46v-46h-473v710h464v-46h-413v-279h361v-44h-361v-295h422zM256 918h57l62 -85l-34 -16z" />
    <glyph glyph-name="Eacute" unicode="&#xc9;" 
d="M339 816l-35 16l61 85h58zM566 46v-46h-473v710h464v-46h-413v-279h361v-44h-361v-295h422z" />
    <glyph glyph-name="Ecircumflex" unicode="&#xca;" 
d="M225 836l96 81h37l97 -81l-30 -17l-85 63l-85 -63zM566 46v-46h-473v710h464v-46h-413v-279h361v-44h-361v-295h422z" />
    <glyph glyph-name="Edieresis" unicode="&#xcb;" 
d="M249 828v88h44v-88h-44zM385 828v88h44v-88h-44zM566 46v-46h-473v710h464v-46h-413v-279h361v-44h-361v-295h422z" />
    <glyph glyph-name="Igrave" unicode="&#xcc;" horiz-adv-x="237" 
d="M93 0v710h51v-710h-51zM34 918h57l62 -85l-34 -16z" />
    <glyph glyph-name="Iacute" unicode="&#xcd;" horiz-adv-x="237" 
d="M93 0v710h51v-710h-51zM117 816l-35 16l61 85h58z" />
    <glyph glyph-name="Icircumflex" unicode="&#xce;" horiz-adv-x="237" 
d="M93 0v710h51v-710h-51zM3 836l96 81h37l97 -81l-30 -17l-85 63l-85 -63z" />
    <glyph glyph-name="Idieresis" unicode="&#xcf;" horiz-adv-x="237" 
d="M93 0v710h51v-710h-51zM28 828v88h44v-88h-44zM164 828v88h44v-88h-44z" />
    <glyph glyph-name="Eth" unicode="&#xd0;" horiz-adv-x="720" 
d="M100 0v336h-65v42h65v332h236q84 0 147.5 -28t105.5 -76t63 -112.5t21 -137.5q0 -81 -23.5 -146.5t-67.5 -112t-106.5 -72t-139.5 -25.5h-236zM622 356q0 67 -19 123.5t-55.5 97.5t-89.5 64t-122 23h-185v-286h178v-42h-178v-290h185q70 0 123.5 23.5t89.5 65.5
t54.5 98.5t18.5 122.5z" />
    <glyph glyph-name="Ntilde" unicode="&#xd1;" horiz-adv-x="773" 
d="M144 614v-614h-51v710h39l498 -625v625h51v-710h-47zM452 834q-22 0 -39 6t-31 13.5t-27.5 14t-28.5 6.5q-17 0 -27 -7t-15 -15.5t-7 -16t-2 -9.5h-34q0 4 3 17.5t12.5 28t26 26t43.5 11.5q20 0 35.5 -6.5t29.5 -14t28.5 -13.5t33.5 -6q20 0 31.5 7t17 15.5t7 16t1.5 9.5
h34q0 -5 -3.5 -18.5t-13 -27.5t-27.5 -25.5t-48 -11.5z" />
    <glyph glyph-name="Ograve" unicode="&#xd2;" horiz-adv-x="753" 
d="M376 -5q-74 0 -135 31t-105 81t-68 115t-24 133q0 71 25.5 136t70 115t105.5 79.5t132 29.5q74 0 135.5 -31.5t105 -82.5t67.5 -115.5t24 -130.5q0 -72 -25.5 -137t-70 -114.5t-105.5 -79t-132 -29.5zM95 355q0 -61 20.5 -117.5t58 -100t89.5 -69.5t114 -26
q64 0 115.5 27t88 71.5t56.5 100.5t20 114q0 61 -21 117.5t-58.5 100t-88.5 69.5t-112 26q-64 0 -116 -27t-89 -71.5t-57 -100.5t-20 -114zM293 918h57l62 -85l-34 -16z" />
    <glyph glyph-name="Oacute" unicode="&#xd3;" horiz-adv-x="753" 
d="M376 816l-35 16l61 85h58zM376 -5q-74 0 -135 31t-105 81t-68 115t-24 133q0 71 25.5 136t70 115t105.5 79.5t132 29.5q74 0 135.5 -31.5t105 -82.5t67.5 -115.5t24 -130.5q0 -72 -25.5 -137t-70 -114.5t-105.5 -79t-132 -29.5zM95 355q0 -61 20.5 -117.5t58 -100
t89.5 -69.5t114 -26q64 0 115.5 27t88 71.5t56.5 100.5t20 114q0 61 -21 117.5t-58.5 100t-88.5 69.5t-112 26q-64 0 -116 -27t-89 -71.5t-57 -100.5t-20 -114z" />
    <glyph glyph-name="Ocircumflex" unicode="&#xd4;" horiz-adv-x="753" 
d="M262 836l96 81h37l97 -81l-30 -17l-85 63l-85 -63zM376 -5q-74 0 -135 31t-105 81t-68 115t-24 133q0 71 25.5 136t70 115t105.5 79.5t132 29.5q74 0 135.5 -31.5t105 -82.5t67.5 -115.5t24 -130.5q0 -72 -25.5 -137t-70 -114.5t-105.5 -79t-132 -29.5zM95 355
q0 -61 20.5 -117.5t58 -100t89.5 -69.5t114 -26q64 0 115.5 27t88 71.5t56.5 100.5t20 114q0 61 -21 117.5t-58.5 100t-88.5 69.5t-112 26q-64 0 -116 -27t-89 -71.5t-57 -100.5t-20 -114z" />
    <glyph glyph-name="Otilde" unicode="&#xd5;" horiz-adv-x="753" 
d="M376 -5q-74 0 -135 31t-105 81t-68 115t-24 133q0 71 25.5 136t70 115t105.5 79.5t132 29.5q74 0 135.5 -31.5t105 -82.5t67.5 -115.5t24 -130.5q0 -72 -25.5 -137t-70 -114.5t-105.5 -79t-132 -29.5zM95 355q0 -61 20.5 -117.5t58 -100t89.5 -69.5t114 -26
q64 0 115.5 27t88 71.5t56.5 100.5t20 114q0 61 -21 117.5t-58.5 100t-88.5 69.5t-112 26q-64 0 -116 -27t-89 -71.5t-57 -100.5t-20 -114zM438 834q-22 0 -39 6t-31 13.5t-27.5 14t-28.5 6.5q-17 0 -27 -7t-15 -15.5t-7 -16t-2 -9.5h-34q0 4 3 17.5t12.5 28t26 26
t43.5 11.5q20 0 35.5 -6.5t29.5 -14t28.5 -13.5t33.5 -6q20 0 31.5 7t17 15.5t7 16t1.5 9.5h34q0 -5 -3.5 -18.5t-13 -27.5t-27.5 -25.5t-48 -11.5z" />
    <glyph glyph-name="Odieresis" unicode="&#xd6;" horiz-adv-x="753" 
d="M287 828v88h44v-88h-44zM423 828v88h44v-88h-44zM376 -5q-74 0 -135 31t-105 81t-68 115t-24 133q0 71 25.5 136t70 115t105.5 79.5t132 29.5q74 0 135.5 -31.5t105 -82.5t67.5 -115.5t24 -130.5q0 -72 -25.5 -137t-70 -114.5t-105.5 -79t-132 -29.5zM95 355
q0 -61 20.5 -117.5t58 -100t89.5 -69.5t114 -26q64 0 115.5 27t88 71.5t56.5 100.5t20 114q0 61 -21 117.5t-58.5 100t-88.5 69.5t-112 26q-64 0 -116 -27t-89 -71.5t-57 -100.5t-20 -114z" />
    <glyph glyph-name="multiply" unicode="&#xd7;" horiz-adv-x="451" 
d="M385 145l-33 -32l-127 126l-126 -126l-32 33l125 125l-125 127l33 32l125 -126l127 127l32 -33l-126 -127z" />
    <glyph glyph-name="Oslash" unicode="&#xd8;" horiz-adv-x="753" 
d="M639 710l-52 -78q58 -53 90 -126.5t32 -150.5q0 -72 -25.5 -137t-70 -114.5t-105.5 -79t-132 -29.5q-49 0 -93 14t-80 39l-31 -48h-57l50 77q-57 52 -89 125t-32 153q0 71 25.5 136t70 115t105.5 79.5t132 29.5q49 0 92 -14t80 -39l32 48h58zM95 355q0 -69 25.5 -130.5
t71.5 -106.5l331 504q-32 22 -68.5 34t-77.5 12q-64 0 -116 -27t-89 -71.5t-57 -100.5t-20 -114zM657 355q0 68 -26 129.5t-71 106.5l-331 -504q32 -21 69 -33t79 -12q64 0 115.5 27t88 71.5t56.5 100.5t20 114z" />
    <glyph glyph-name="Ugrave" unicode="&#xd9;" horiz-adv-x="756" 
d="M378 42q72 0 119.5 27t75 71t39 100t11.5 113v357h51v-357q0 -71 -15.5 -136t-50.5 -114.5t-91 -78.5t-138 -29q-85 0 -142 30.5t-91.5 81t-49 114.5t-14.5 132v357h51v-357q0 -59 11.5 -115t40 -99.5t75.5 -70t118 -26.5zM295 918h57l62 -85l-34 -16z" />
    <glyph glyph-name="Uacute" unicode="&#xda;" horiz-adv-x="756" 
d="M378 816l-35 16l61 85h58zM378 42q72 0 119.5 27t75 71t39 100t11.5 113v357h51v-357q0 -71 -15.5 -136t-50.5 -114.5t-91 -78.5t-138 -29q-85 0 -142 30.5t-91.5 81t-49 114.5t-14.5 132v357h51v-357q0 -59 11.5 -115t40 -99.5t75.5 -70t118 -26.5z" />
    <glyph glyph-name="Ucircumflex" unicode="&#xdb;" horiz-adv-x="756" 
d="M264 836l96 81h37l97 -81l-30 -17l-85 63l-85 -63zM378 42q72 0 119.5 27t75 71t39 100t11.5 113v357h51v-357q0 -71 -15.5 -136t-50.5 -114.5t-91 -78.5t-138 -29q-85 0 -142 30.5t-91.5 81t-49 114.5t-14.5 132v357h51v-357q0 -59 11.5 -115t40 -99.5t75.5 -70
t118 -26.5z" />
    <glyph glyph-name="Udieresis" unicode="&#xdc;" horiz-adv-x="756" 
d="M288 828v88h44v-88h-44zM424 828v88h44v-88h-44zM378 42q72 0 119.5 27t75 71t39 100t11.5 113v357h51v-357q0 -71 -15.5 -136t-50.5 -114.5t-91 -78.5t-138 -29q-85 0 -142 30.5t-91.5 81t-49 114.5t-14.5 132v357h51v-357q0 -59 11.5 -115t40 -99.5t75.5 -70t118 -26.5
z" />
    <glyph glyph-name="Yacute" unicode="&#xdd;" horiz-adv-x="647" 
d="M75 710l248 -393l249 393h57l-280 -442v-268h-51v270l-279 440h56zM322 816l-35 16l61 85h58z" />
    <glyph glyph-name="Thorn" unicode="&#xde;" horiz-adv-x="601" 
d="M366 566q45 0 83 -19t65 -50.5t42.5 -71t15.5 -80.5q0 -43 -14.5 -83t-40.5 -70.5t-63 -49t-82 -18.5h-228v-124h-51v710h51v-144h222zM371 171q35 0 63 15t47.5 39.5t30 55.5t10.5 64q0 34 -12.5 65.5t-34 55.5t-50 38.5t-61.5 14.5h-220v-348h227z" />
    <glyph glyph-name="germandbls" unicode="&#xdf;" horiz-adv-x="549" 
d="M235 40q103 2 162.5 44t59.5 124q0 38 -13.5 69t-37.5 53.5t-57.5 34.5t-73.5 12h-17v47h16q29 0 53.5 9t42.5 25.5t28 39t10 49.5q0 28 -10.5 50.5t-29.5 38.5t-44 24.5t-53 8.5q-35 0 -61.5 -12.5t-45 -34t-28 -51.5t-9.5 -65v-506h-49v513q0 45 14.5 82t40 63.5
t61.5 41t78 14.5q39 0 73 -12t58.5 -33t38.5 -50.5t14 -63.5q0 -27 -8.5 -52t-23.5 -45.5t-35.5 -35t-43.5 -19.5q78 -17 120.5 -69.5t42.5 -128.5q0 -99 -73 -153t-200 -58v46z" />
    <glyph glyph-name="agrave" unicode="&#xe0;" horiz-adv-x="537" 
d="M206 -10q-36 0 -67 12.5t-54.5 34t-36.5 51t-13 63.5t16 62t44.5 48.5t68.5 32t88 11.5q42 0 84.5 -7.5t76.5 -20.5v51q0 74 -42 117.5t-114 43.5q-38 0 -80.5 -16t-86.5 -46l-19 34q100 68 190 68q94 0 148 -54.5t54 -150.5v-254q0 -25 22 -25v-45q-5 -1 -10.5 -1.5
t-9.5 -0.5q-20 0 -32 13.5t-14 32.5v43q-36 -47 -92 -72t-121 -25zM216 30q58 0 106.5 22t74.5 58q16 21 16 40v92q-36 14 -75 21t-81 7q-39 0 -71 -8.5t-55 -23.5t-35.5 -36.5t-12.5 -47.5t10 -49t28 -39.5t42.5 -26t52.5 -9.5zM177 730h57l62 -85l-34 -16z" />
    <glyph glyph-name="aacute" unicode="&#xe1;" horiz-adv-x="537" 
d="M206 -10q-36 0 -67 12.5t-54.5 34t-36.5 51t-13 63.5t16 62t44.5 48.5t68.5 32t88 11.5q42 0 84.5 -7.5t76.5 -20.5v51q0 74 -42 117.5t-114 43.5q-38 0 -80.5 -16t-86.5 -46l-19 34q100 68 190 68q94 0 148 -54.5t54 -150.5v-254q0 -25 22 -25v-45q-5 -1 -10.5 -1.5
t-9.5 -0.5q-20 0 -32 13.5t-14 32.5v43q-36 -47 -92 -72t-121 -25zM216 30q58 0 106.5 22t74.5 58q16 21 16 40v92q-36 14 -75 21t-81 7q-39 0 -71 -8.5t-55 -23.5t-35.5 -36.5t-12.5 -47.5t10 -49t28 -39.5t42.5 -26t52.5 -9.5zM260 629l-35 16l61 85h58z" />
    <glyph glyph-name="acircumflex" unicode="&#xe2;" horiz-adv-x="537" 
d="M206 -10q-36 0 -67 12.5t-54.5 34t-36.5 51t-13 63.5t16 62t44.5 48.5t68.5 32t88 11.5q42 0 84.5 -7.5t76.5 -20.5v51q0 74 -42 117.5t-114 43.5q-38 0 -80.5 -16t-86.5 -46l-19 34q100 68 190 68q94 0 148 -54.5t54 -150.5v-254q0 -25 22 -25v-45q-5 -1 -10.5 -1.5
t-9.5 -0.5q-20 0 -32 13.5t-14 32.5v43q-36 -47 -92 -72t-121 -25zM216 30q58 0 106.5 22t74.5 58q16 21 16 40v92q-36 14 -75 21t-81 7q-39 0 -71 -8.5t-55 -23.5t-35.5 -36.5t-12.5 -47.5t10 -49t28 -39.5t42.5 -26t52.5 -9.5zM146 649l96 81h37l97 -81l-30 -17l-85 63
l-85 -63z" />
    <glyph glyph-name="atilde" unicode="&#xe3;" horiz-adv-x="537" 
d="M206 -10q-36 0 -67 12.5t-54.5 34t-36.5 51t-13 63.5t16 62t44.5 48.5t68.5 32t88 11.5q42 0 84.5 -7.5t76.5 -20.5v51q0 74 -42 117.5t-114 43.5q-38 0 -80.5 -16t-86.5 -46l-19 34q100 68 190 68q94 0 148 -54.5t54 -150.5v-254q0 -25 22 -25v-45q-5 -1 -10.5 -1.5
t-9.5 -0.5q-20 0 -32 13.5t-14 32.5v43q-36 -47 -92 -72t-121 -25zM216 30q58 0 106.5 22t74.5 58q16 21 16 40v92q-36 14 -75 21t-81 7q-39 0 -71 -8.5t-55 -23.5t-35.5 -36.5t-12.5 -47.5t10 -49t28 -39.5t42.5 -26t52.5 -9.5zM322 647q-22 0 -39 6t-31 13.5t-27.5 14
t-28.5 6.5q-17 0 -27 -7t-15 -15.5t-7 -16t-2 -9.5h-34q0 4 3 17.5t12.5 28t26 26t43.5 11.5q20 0 35.5 -6.5t29.5 -14t28.5 -13.5t33.5 -6q20 0 31.5 7t17 15.5t7 16t1.5 9.5h34q0 -5 -3.5 -18.5t-13 -27.5t-27.5 -25.5t-48 -11.5z" />
    <glyph glyph-name="adieresis" unicode="&#xe4;" horiz-adv-x="537" 
d="M206 -10q-36 0 -67 12.5t-54.5 34t-36.5 51t-13 63.5t16 62t44.5 48.5t68.5 32t88 11.5q42 0 84.5 -7.5t76.5 -20.5v51q0 74 -42 117.5t-114 43.5q-38 0 -80.5 -16t-86.5 -46l-19 34q100 68 190 68q94 0 148 -54.5t54 -150.5v-254q0 -25 22 -25v-45q-5 -1 -10.5 -1.5
t-9.5 -0.5q-20 0 -32 13.5t-14 32.5v43q-36 -47 -92 -72t-121 -25zM216 30q58 0 106.5 22t74.5 58q16 21 16 40v92q-36 14 -75 21t-81 7q-39 0 -71 -8.5t-55 -23.5t-35.5 -36.5t-12.5 -47.5t10 -49t28 -39.5t42.5 -26t52.5 -9.5zM171 640v88h44v-88h-44zM307 640v88h44v-88
h-44z" />
    <glyph glyph-name="aring" unicode="&#xe5;" horiz-adv-x="537" 
d="M206 -10q-36 0 -67 12.5t-54.5 34t-36.5 51t-13 63.5t16 62t44.5 48.5t68.5 32t88 11.5q42 0 84.5 -7.5t76.5 -20.5v51q0 74 -42 117.5t-114 43.5q-38 0 -80.5 -16t-86.5 -46l-19 34q100 68 190 68q94 0 148 -54.5t54 -150.5v-254q0 -25 22 -25v-45q-5 -1 -10.5 -1.5
t-9.5 -0.5q-20 0 -32 13.5t-14 32.5v43q-36 -47 -92 -72t-121 -25zM216 30q58 0 106.5 22t74.5 58q16 21 16 40v92q-36 14 -75 21t-81 7q-39 0 -71 -8.5t-55 -23.5t-35.5 -36.5t-12.5 -47.5t10 -49t28 -39.5t42.5 -26t52.5 -9.5zM192 668q0 27 19.5 44.5t48.5 17.5
t48.5 -17.5t19.5 -44.5q0 -28 -19.5 -45.5t-48.5 -17.5t-48.5 17.5t-19.5 45.5zM260 707q-17 0 -28.5 -10.5t-11.5 -28.5q0 -17 11.5 -28.5t28.5 -11.5q16 0 28.5 11.5t12.5 28.5q0 18 -12 28.5t-29 10.5z" />
    <glyph glyph-name="ae" unicode="&#xe6;" horiz-adv-x="930" 
d="M206 -10q-36 0 -67 12.5t-54.5 34t-36.5 51t-13 63.5t16 62t44.5 48.5t68 32t87.5 11.5q35 0 71 -5.5t67 -14.5q2 21 6.5 42.5t12.5 41.5q-11 56 -50.5 88t-100.5 32q-38 0 -80.5 -16t-86.5 -46l-20 34q101 68 191 68q66 0 111.5 -29t67.5 -82q32 50 85 80.5t117 30.5
q55 0 102 -21t81.5 -58t54 -86t19.5 -104q0 -3 -0.5 -10.5t-0.5 -9.5h-461q3 -45 21 -83.5t46.5 -66.5t65.5 -44t78 -16q27 0 53.5 7.5t49 20.5t40 31.5t27.5 40.5l44 -12q-12 -28 -33.5 -51.5t-50 -40.5t-62.5 -26.5t-70 -9.5q-67 0 -122 32t-90 85q-16 -31 -42 -53
t-57 -36.5t-64.5 -21t-64.5 -6.5zM216 30q58 0 107 21.5t74 58.5q15 19 16 35q-11 23 -17 51t-7 54q-63 20 -132 20q-78 0 -126 -32t-48 -84q0 -26 10 -49t28 -39.5t42.5 -26t52.5 -9.5zM850 277q-3 46 -20 85t-45 67t-64.5 43.5t-78.5 15.5t-78.5 -16t-64 -44t-44 -66.5
t-18.5 -84.5h413z" />
    <glyph glyph-name="ccedilla" unicode="&#xe7;" horiz-adv-x="545" 
d="M222 -125q14 -7 37.5 -13t49.5 -6q58 0 58 37q0 20 -13.5 28t-35.5 8q-21 0 -44 -5t-37 -9l42 76q-51 4 -94.5 26.5t-75 59.5t-49.5 84.5t-18 100.5q0 55 19 104t53 85t81 57t103 21q71 0 125 -32t81 -89l-49 -16q-23 43 -65.5 67.5t-93.5 24.5q-43 0 -80 -17t-64.5 -47
t-43.5 -70.5t-16 -87.5t16.5 -88.5t44 -72t65 -48.5t79.5 -18q27 0 53.5 8t49 21t39 30.5t22.5 36.5l49 -14q-10 -26 -29 -48.5t-45 -39t-58 -27t-66 -11.5l-26 -44q9 4 20.5 5t19.5 1q34 0 53 -15t19 -44q0 -32 -24 -48.5t-69 -16.5q-29 0 -53.5 5.5t-43.5 13.5z" />
    <glyph glyph-name="egrave" unicode="&#xe8;" horiz-adv-x="583" 
d="M299 -10q-55 0 -102 21.5t-81.5 59t-54 86.5t-19.5 105q0 55 19.5 103.5t53.5 85t80.5 57.5t100.5 21q55 0 102 -21.5t81 -58t53 -85t19 -102.5v-12q0 -8 -1 -10h-456q3 -45 21 -83.5t45.5 -66.5t63.5 -44t77 -16q27 0 53 7.5t48.5 20.5t40 31.5t27.5 40.5l44 -12
q-11 -28 -32.5 -51.5t-50 -40.5t-62.5 -26.5t-70 -9.5zM503 280q-3 46 -20.5 84t-45 65.5t-63.5 43t-77 15.5t-77 -15.5t-63.5 -43t-44 -66t-19.5 -83.5h410zM211 730h57l62 -85l-34 -16z" />
    <glyph glyph-name="eacute" unicode="&#xe9;" horiz-adv-x="583" 
d="M294 629l-35 16l61 85h58zM299 -10q-55 0 -102 21.5t-81.5 59t-54 86.5t-19.5 105q0 55 19.5 103.5t53.5 85t80.5 57.5t100.5 21q55 0 102 -21.5t81 -58t53 -85t19 -102.5v-12q0 -8 -1 -10h-456q3 -45 21 -83.5t45.5 -66.5t63.5 -44t77 -16q27 0 53 7.5t48.5 20.5
t40 31.5t27.5 40.5l44 -12q-11 -28 -32.5 -51.5t-50 -40.5t-62.5 -26.5t-70 -9.5zM503 280q-3 46 -20.5 84t-45 65.5t-63.5 43t-77 15.5t-77 -15.5t-63.5 -43t-44 -66t-19.5 -83.5h410z" />
    <glyph glyph-name="ecircumflex" unicode="&#xea;" horiz-adv-x="583" 
d="M180 649l96 81h37l97 -81l-30 -17l-85 63l-85 -63zM299 -10q-55 0 -102 21.5t-81.5 59t-54 86.5t-19.5 105q0 55 19.5 103.5t53.5 85t80.5 57.5t100.5 21q55 0 102 -21.5t81 -58t53 -85t19 -102.5v-12q0 -8 -1 -10h-456q3 -45 21 -83.5t45.5 -66.5t63.5 -44t77 -16
q27 0 53 7.5t48.5 20.5t40 31.5t27.5 40.5l44 -12q-11 -28 -32.5 -51.5t-50 -40.5t-62.5 -26.5t-70 -9.5zM503 280q-3 46 -20.5 84t-45 65.5t-63.5 43t-77 15.5t-77 -15.5t-63.5 -43t-44 -66t-19.5 -83.5h410z" />
    <glyph glyph-name="edieresis" unicode="&#xeb;" horiz-adv-x="583" 
d="M205 640v88h44v-88h-44zM341 640v88h44v-88h-44zM299 -10q-55 0 -102 21.5t-81.5 59t-54 86.5t-19.5 105q0 55 19.5 103.5t53.5 85t80.5 57.5t100.5 21q55 0 102 -21.5t81 -58t53 -85t19 -102.5v-12q0 -8 -1 -10h-456q3 -45 21 -83.5t45.5 -66.5t63.5 -44t77 -16
q27 0 53 7.5t48.5 20.5t40 31.5t27.5 40.5l44 -12q-11 -28 -32.5 -51.5t-50 -40.5t-62.5 -26.5t-70 -9.5zM503 280q-3 46 -20.5 84t-45 65.5t-63.5 43t-77 15.5t-77 -15.5t-63.5 -43t-44 -66t-19.5 -83.5h410z" />
    <glyph glyph-name="igrave" unicode="&#xec;" horiz-adv-x="207" 
d="M78 0v520h50v-520h-50zM19 730h57l62 -85l-34 -16z" />
    <glyph glyph-name="iacute" unicode="&#xed;" horiz-adv-x="207" 
d="M102 629l-35 16l61 85h58zM78 0v520h50v-520h-50z" />
    <glyph glyph-name="icircumflex" unicode="&#xee;" horiz-adv-x="207" 
d="M-12 649l96 81h37l97 -81l-30 -17l-85 63l-85 -63zM78 0v520h50v-520h-50z" />
    <glyph glyph-name="idieresis" unicode="&#xef;" horiz-adv-x="207" 
d="M13 640v88h44v-88h-44zM149 640v88h44v-88h-44zM78 0v520h50v-520h-50z" />
    <glyph glyph-name="eth" unicode="&#xf0;" horiz-adv-x="599" 
d="M486 689l-86 -54q46 -44 76 -90.5t47 -93t23.5 -93.5t6.5 -93q0 -60 -20.5 -110t-55.5 -87t-82 -57.5t-99 -20.5t-98 19t-80 52t-54 77t-20 94q0 49 19.5 93t53 77t78 52.5t95.5 19.5q71 0 128 -35t84 -92q-9 66 -39 133t-101 134l-116 -74l-18 25l112 69q-29 24 -63 48
t-76 48h71q30 -18 56.5 -36.5t49.5 -38.5l91 58zM95 231q0 -41 16 -76.5t43 -62t64 -42t79 -15.5t79.5 16.5t65.5 45t44 66.5t16 80q0 39 -16 73t-44 59.5t-64.5 40.5t-78.5 15t-79 -16t-65 -43t-44 -63.5t-16 -77.5z" />
    <glyph glyph-name="ntilde" unicode="&#xf1;" horiz-adv-x="576" 
d="M503 0h-50v290q0 101 -28.5 147t-90.5 46q-33 0 -65.5 -12t-60.5 -34t-49 -51.5t-31 -63.5v-322h-50v520h47v-124q16 30 39.5 54.5t53 42t62.5 27t68 9.5q85 0 120 -59.5t35 -170.5v-299zM351 647q-22 0 -39 6t-31 13.5t-27.5 14t-28.5 6.5q-17 0 -27 -7t-15 -15.5
t-7 -16t-2 -9.5h-34q0 4 3 17.5t12.5 28t26 26t43.5 11.5q20 0 35.5 -6.5t29.5 -14t28.5 -13.5t33.5 -6q20 0 31.5 7t17 15.5t7 16t1.5 9.5h34q0 -5 -3.5 -18.5t-13 -27.5t-27.5 -25.5t-48 -11.5z" />
    <glyph glyph-name="ograve" unicode="&#xf2;" horiz-adv-x="592" 
d="M296 -10q-55 0 -101.5 21.5t-80.5 58.5t-53 86t-19 103q0 55 19.5 104t53.5 86t80.5 58.5t100.5 21.5t100 -21.5t80.5 -58.5t54 -86t19.5 -104q0 -54 -19.5 -103t-53.5 -86t-80.5 -58.5t-100.5 -21.5zM92 257q0 -46 16 -86.5t43.5 -70.5t64.5 -47.5t79 -17.5t79 17.5
t65 48.5t44 71.5t16 87.5q0 46 -16 86.5t-44 71t-64.5 48.5t-78.5 18t-79 -18t-64.5 -49t-44 -72.5t-16.5 -87.5zM212 730h57l62 -85l-34 -16z" />
    <glyph glyph-name="oacute" unicode="&#xf3;" horiz-adv-x="592" 
d="M295 629l-35 16l61 85h58zM296 -10q-55 0 -101.5 21.5t-80.5 58.5t-53 86t-19 103q0 55 19.5 104t53.5 86t80.5 58.5t100.5 21.5t100 -21.5t80.5 -58.5t54 -86t19.5 -104q0 -54 -19.5 -103t-53.5 -86t-80.5 -58.5t-100.5 -21.5zM92 257q0 -46 16 -86.5t43.5 -70.5
t64.5 -47.5t79 -17.5t79 17.5t65 48.5t44 71.5t16 87.5q0 46 -16 86.5t-44 71t-64.5 48.5t-78.5 18t-79 -18t-64.5 -49t-44 -72.5t-16.5 -87.5z" />
    <glyph glyph-name="ocircumflex" unicode="&#xf4;" horiz-adv-x="592" 
d="M181 649l96 81h37l97 -81l-30 -17l-85 63l-85 -63zM296 -10q-55 0 -101.5 21.5t-80.5 58.5t-53 86t-19 103q0 55 19.5 104t53.5 86t80.5 58.5t100.5 21.5t100 -21.5t80.5 -58.5t54 -86t19.5 -104q0 -54 -19.5 -103t-53.5 -86t-80.5 -58.5t-100.5 -21.5zM92 257
q0 -46 16 -86.5t43.5 -70.5t64.5 -47.5t79 -17.5t79 17.5t65 48.5t44 71.5t16 87.5q0 46 -16 86.5t-44 71t-64.5 48.5t-78.5 18t-79 -18t-64.5 -49t-44 -72.5t-16.5 -87.5z" />
    <glyph glyph-name="otilde" unicode="&#xf5;" horiz-adv-x="592" 
d="M296 -10q-55 0 -101.5 21.5t-80.5 58.5t-53 86t-19 103q0 55 19.5 104t53.5 86t80.5 58.5t100.5 21.5t100 -21.5t80.5 -58.5t54 -86t19.5 -104q0 -54 -19.5 -103t-53.5 -86t-80.5 -58.5t-100.5 -21.5zM92 257q0 -46 16 -86.5t43.5 -70.5t64.5 -47.5t79 -17.5t79 17.5
t65 48.5t44 71.5t16 87.5q0 46 -16 86.5t-44 71t-64.5 48.5t-78.5 18t-79 -18t-64.5 -49t-44 -72.5t-16.5 -87.5zM357 647q-22 0 -39 6t-31 13.5t-27.5 14t-28.5 6.5q-17 0 -27 -7t-15 -15.5t-7 -16t-2 -9.5h-34q0 4 3 17.5t12.5 28t26 26t43.5 11.5q20 0 35.5 -6.5
t29.5 -14t28.5 -13.5t33.5 -6q20 0 31.5 7t17 15.5t7 16t1.5 9.5h34q0 -5 -3.5 -18.5t-13 -27.5t-27.5 -25.5t-48 -11.5z" />
    <glyph glyph-name="odieresis" unicode="&#xf6;" horiz-adv-x="592" 
d="M206 640v88h44v-88h-44zM342 640v88h44v-88h-44zM296 -10q-55 0 -101.5 21.5t-80.5 58.5t-53 86t-19 103q0 55 19.5 104t53.5 86t80.5 58.5t100.5 21.5t100 -21.5t80.5 -58.5t54 -86t19.5 -104q0 -54 -19.5 -103t-53.5 -86t-80.5 -58.5t-100.5 -21.5zM92 257
q0 -46 16 -86.5t43.5 -70.5t64.5 -47.5t79 -17.5t79 17.5t65 48.5t44 71.5t16 87.5q0 46 -16 86.5t-44 71t-64.5 48.5t-78.5 18t-79 -18t-64.5 -49t-44 -72.5t-16.5 -87.5z" />
    <glyph glyph-name="divide" unicode="&#xf7;" horiz-adv-x="540" 
d="M248 394v81h44v-81h-44zM248 81v80h44v-80h-44zM69 257v43h403v-43h-403z" />
    <glyph glyph-name="oslash" unicode="&#xf8;" horiz-adv-x="592" 
d="M104 -1l34 48q-45 38 -70.5 93t-25.5 119q0 55 19.5 104t53.5 86t80.5 58.5t100.5 21.5q36 0 69 -10.5t62 -28.5l22 31h40l-36 -50q45 -38 71 -93t26 -119q0 -54 -19.5 -103t-53.5 -86t-80.5 -58.5t-100.5 -21.5q-38 0 -70.5 10t-61.5 28l-22 -29h-38zM92 257
q0 -53 20 -97t54 -75l235 366q-23 16 -49.5 24.5t-55.5 8.5q-42 0 -79 -18t-64.5 -49t-44 -72.5t-16.5 -87.5zM295 35q42 0 79 17.5t65 48.5t44 71.5t16 87.5q0 51 -20 95.5t-54 75.5l-236 -364q47 -32 106 -32z" />
    <glyph glyph-name="ugrave" unicode="&#xf9;" horiz-adv-x="587" 
d="M239 -10q-166 0 -166 230v300h50v-293q0 -192 131 -192q33 0 64 11.5t58 32t47.5 49.5t32.5 64v328h50v-450q0 -25 21 -25v-45q-5 -1 -9 -1h-6q-20 0 -35.5 12.5t-15.5 33.5v78q-34 -63 -93.5 -98t-128.5 -35zM204 730h57l62 -85l-34 -16z" />
    <glyph glyph-name="uacute" unicode="&#xfa;" horiz-adv-x="587" 
d="M286 629l-35 16l61 85h58zM239 -10q-166 0 -166 230v300h50v-293q0 -192 131 -192q33 0 64 11.5t58 32t47.5 49.5t32.5 64v328h50v-450q0 -25 21 -25v-45q-5 -1 -9 -1h-6q-20 0 -35.5 12.5t-15.5 33.5v78q-34 -63 -93.5 -98t-128.5 -35z" />
    <glyph glyph-name="ucircumflex" unicode="&#xfb;" horiz-adv-x="587" 
d="M172 649l96 81h37l97 -81l-30 -17l-85 63l-85 -63zM239 -10q-166 0 -166 230v300h50v-293q0 -192 131 -192q33 0 64 11.5t58 32t47.5 49.5t32.5 64v328h50v-450q0 -25 21 -25v-45q-5 -1 -9 -1h-6q-20 0 -35.5 12.5t-15.5 33.5v78q-34 -63 -93.5 -98t-128.5 -35z" />
    <glyph glyph-name="udieresis" unicode="&#xfc;" horiz-adv-x="587" 
d="M197 640v88h44v-88h-44zM333 640v88h44v-88h-44zM239 -10q-166 0 -166 230v300h50v-293q0 -192 131 -192q33 0 64 11.5t58 32t47.5 49.5t32.5 64v328h50v-450q0 -25 21 -25v-45q-5 -1 -9 -1h-6q-20 0 -35.5 12.5t-15.5 33.5v78q-34 -63 -93.5 -98t-128.5 -35z" />
    <glyph glyph-name="yacute" unicode="&#xfd;" horiz-adv-x="540" 
d="M113 -176q5 -1 15 -1t18.5 1t16.5 5q6 3 11 8.5t14 22.5t23 50l38 90l-232 520h52l207 -471l193 471h49l-285 -684q-11 -28 -35.5 -43.5t-66.5 -15.5h-9q-4 0 -9 1v46zM275 629l-35 16l61 85h58z" />
    <glyph glyph-name="thorn" unicode="&#xfe;" horiz-adv-x="603" 
d="M562 258q-1 -54 -21 -103t-54 -86.5t-80 -60t-99 -22.5q-29 0 -55.5 8t-50 22t-42 32t-31.5 39v-300h-51v923h51v-289q33 46 78.5 77.5t109.5 31.5q57 0 102.5 -24.5t77 -63.5t48.5 -87.5t17 -96.5zM511 258q0 44 -14 84.5t-40 72t-62 50.5t-80 19q-33 0 -61 -11
t-51.5 -29.5t-42 -42.5t-31.5 -50v-180q0 -27 17.5 -52t44 -44t58 -30.5t58.5 -11.5q45 0 82.5 19t64.5 50.5t42 72t15 83.5z" />
    <glyph glyph-name="ydieresis" unicode="&#xff;" horiz-adv-x="540" 
d="M113 -176q5 -1 15 -1t18.5 1t16.5 5q6 3 11 8.5t14 22.5t23 50l38 90l-232 520h52l207 -471l193 471h49l-285 -684q-11 -28 -35.5 -43.5t-66.5 -15.5h-9q-4 0 -9 1v46zM186 640v88h44v-88h-44zM322 640v88h44v-88h-44z" />
    <glyph glyph-name="Amacron" unicode="&#x100;" horiz-adv-x="675" 
d="M316 710h44l300 -710h-54l-99 234h-339l-99 -234h-55zM493 276l-155 372l-158 -372h313zM196 859v37h285v-37h-285z" />
    <glyph glyph-name="amacron" unicode="&#x101;" horiz-adv-x="537" 
d="M206 -10q-36 0 -67 12.5t-54.5 34t-36.5 51t-13 63.5t16 62t44.5 48.5t68.5 32t88 11.5q42 0 84.5 -7.5t76.5 -20.5v51q0 74 -42 117.5t-114 43.5q-38 0 -80.5 -16t-86.5 -46l-19 34q100 68 190 68q94 0 148 -54.5t54 -150.5v-254q0 -25 22 -25v-45q-5 -1 -10.5 -1.5
t-9.5 -0.5q-20 0 -32 13.5t-14 32.5v43q-36 -47 -92 -72t-121 -25zM216 30q58 0 106.5 22t74.5 58q16 21 16 40v92q-36 14 -75 21t-81 7q-39 0 -71 -8.5t-55 -23.5t-35.5 -36.5t-12.5 -47.5t10 -49t28 -39.5t42.5 -26t52.5 -9.5zM119 672v37h285v-37h-285z" />
    <glyph glyph-name="Abreve" unicode="&#x102;" horiz-adv-x="675" 
d="M316 710h44l300 -710h-54l-99 234h-339l-99 -234h-55zM493 276l-155 372l-158 -372h313zM338 853q20 0 36.5 18.5t19.5 45.5h33q0 -19 -7 -36t-19.5 -29.5t-28.5 -19.5t-34 -7t-34.5 7t-28.5 19.5t-19 29.5t-7 36h33q0 -25 17 -44.5t39 -19.5z" />
    <glyph glyph-name="abreve" unicode="&#x103;" horiz-adv-x="537" 
d="M206 -10q-36 0 -67 12.5t-54.5 34t-36.5 51t-13 63.5t16 62t44.5 48.5t68.5 32t88 11.5q42 0 84.5 -7.5t76.5 -20.5v51q0 74 -42 117.5t-114 43.5q-38 0 -80.5 -16t-86.5 -46l-19 34q100 68 190 68q94 0 148 -54.5t54 -150.5v-254q0 -25 22 -25v-45q-5 -1 -10.5 -1.5
t-9.5 -0.5q-20 0 -32 13.5t-14 32.5v43q-36 -47 -92 -72t-121 -25zM216 30q58 0 106.5 22t74.5 58q16 21 16 40v92q-36 14 -75 21t-81 7q-39 0 -71 -8.5t-55 -23.5t-35.5 -36.5t-12.5 -47.5t10 -49t28 -39.5t42.5 -26t52.5 -9.5zM261 666q20 0 36.5 18.5t19.5 45.5h33
q0 -19 -7 -36t-19.5 -29.5t-28.5 -19.5t-34 -7t-34.5 7t-28.5 19.5t-19 29.5t-7 36h33q0 -25 17 -44.5t39 -19.5z" />
    <glyph glyph-name="Aogonek" unicode="&#x104;" horiz-adv-x="674" 
d="M610 -169q-32 7 -49.5 25t-17.5 43t17.5 49.5t55.5 51.5h-11l-99 234h-339l-99 -234h-55l302 710h44l300 -710q-45 -29 -63.5 -50t-18.5 -44q0 -38 49 -45zM492 276l-155 372l-158 -372h313z" />
    <glyph glyph-name="aogonek" unicode="&#x105;" horiz-adv-x="537" 
d="M436 -169q-32 7 -49.5 25t-17.5 43q0 26 18 50.5t58 52.5q-11 5 -18 16.5t-8 25.5v43q-36 -47 -92 -72t-121 -25q-36 0 -67 12.5t-54.5 34t-36.5 51t-13 63.5t16 62t44.5 48.5t68.5 32t88 11.5q42 0 84.5 -7.5t76.5 -20.5v51q0 74 -42 117.5t-114 43.5q-38 0 -80.5 -16
t-86.5 -46l-19 34q100 68 190 68q94 0 148 -54.5t54 -150.5v-254q0 -25 22 -25v-45q-45 -29 -63.5 -50t-18.5 -44q0 -38 49 -45zM216 30q58 0 106.5 22t74.5 58q16 21 16 40v92q-36 14 -75 21t-81 7q-39 0 -71 -8.5t-55 -23.5t-35.5 -36.5t-12.5 -47.5t10 -49t28 -39.5
t42.5 -26t52.5 -9.5z" />
    <glyph glyph-name="Cacute" unicode="&#x106;" horiz-adv-x="690" 
d="M378 816l-35 16l61 85h58zM44 360q0 64 22.5 127.5t65.5 113.5t105.5 81.5t142.5 31.5q95 0 162 -43.5t100 -111.5l-42 -24q-19 37 -44.5 62t-55 40.5t-61.5 22.5t-63 7q-68 0 -120 -27.5t-88 -71.5t-54.5 -99.5t-18.5 -111.5q0 -63 22 -120t60 -100.5t90 -69.5t112 -26
q32 0 66 8t65 25t58 43.5t45 62.5l44 -21q-18 -40 -49 -71t-69 -52t-80.5 -31.5t-83.5 -10.5q-73 0 -133.5 32t-104.5 83.5t-68.5 117t-24.5 133.5z" />
    <glyph glyph-name="cacute" unicode="&#x107;" horiz-adv-x="545" 
d="M295 629l-35 16l61 85h58zM42 262q0 55 19 104t53 85t81 57t103 21q71 0 125 -32t81 -89l-49 -16q-23 43 -65.5 67.5t-93.5 24.5q-43 0 -80 -17t-64.5 -47t-43.5 -70.5t-16 -87.5t16.5 -88.5t44 -72t65 -48.5t79.5 -18q27 0 53.5 8t49 21t39 30.5t22.5 36.5l49 -14
q-10 -27 -30.5 -50.5t-48.5 -40.5t-62 -26.5t-70 -9.5q-55 0 -102 21.5t-81.5 59t-54 86.5t-19.5 105z" />
    <glyph glyph-name="Ccircumflex" unicode="&#x108;" horiz-adv-x="690" 
d="M264 836l96 81h37l97 -81l-30 -17l-85 63l-85 -63zM44 360q0 64 22.5 127.5t65.5 113.5t105.5 81.5t142.5 31.5q95 0 162 -43.5t100 -111.5l-42 -24q-19 37 -44.5 62t-55 40.5t-61.5 22.5t-63 7q-68 0 -120 -27.5t-88 -71.5t-54.5 -99.5t-18.5 -111.5q0 -63 22 -120
t60 -100.5t90 -69.5t112 -26q32 0 66 8t65 25t58 43.5t45 62.5l44 -21q-18 -40 -49 -71t-69 -52t-80.5 -31.5t-83.5 -10.5q-73 0 -133.5 32t-104.5 83.5t-68.5 117t-24.5 133.5z" />
    <glyph glyph-name="ccircumflex" unicode="&#x109;" horiz-adv-x="545" 
d="M181 649l96 81h37l97 -81l-30 -17l-85 63l-85 -63zM42 262q0 55 19 104t53 85t81 57t103 21q71 0 125 -32t81 -89l-49 -16q-23 43 -65.5 67.5t-93.5 24.5q-43 0 -80 -17t-64.5 -47t-43.5 -70.5t-16 -87.5t16.5 -88.5t44 -72t65 -48.5t79.5 -18q27 0 53.5 8t49 21t39 30.5
t22.5 36.5l49 -14q-10 -27 -30.5 -50.5t-48.5 -40.5t-62 -26.5t-70 -9.5q-55 0 -102 21.5t-81.5 59t-54 86.5t-19.5 105z" />
    <glyph glyph-name="Cdotaccent" unicode="&#x10a;" horiz-adv-x="690" 
d="M44 360q0 64 22.5 127.5t65.5 113.5t105.5 81.5t142.5 31.5q95 0 162 -43.5t100 -111.5l-42 -24q-19 37 -44.5 62t-55 40.5t-61.5 22.5t-63 7q-68 0 -120 -27.5t-88 -71.5t-54.5 -99.5t-18.5 -111.5q0 -63 22 -120t60 -100.5t90 -69.5t112 -26q32 0 66 8t65 25t58 43.5
t45 62.5l44 -21q-18 -40 -49 -71t-69 -52t-80.5 -31.5t-83.5 -10.5q-73 0 -133.5 32t-104.5 83.5t-68.5 117t-24.5 133.5zM356 827v90h46v-90h-46z" />
    <glyph glyph-name="cdotaccent" unicode="&#x10b;" horiz-adv-x="545" 
d="M42 262q0 55 19 104t53 85t81 57t103 21q71 0 125 -32t81 -89l-49 -16q-23 43 -65.5 67.5t-93.5 24.5q-43 0 -80 -17t-64.5 -47t-43.5 -70.5t-16 -87.5t16.5 -88.5t44 -72t65 -48.5t79.5 -18q27 0 53.5 8t49 21t39 30.5t22.5 36.5l49 -14q-10 -27 -30.5 -50.5
t-48.5 -40.5t-62 -26.5t-70 -9.5q-55 0 -102 21.5t-81.5 59t-54 86.5t-19.5 105zM273 640v90h46v-90h-46z" />
    <glyph glyph-name="Ccaron" unicode="&#x10c;" horiz-adv-x="690" 
d="M294 917l85 -63l85 63l30 -17l-97 -81h-37l-96 81zM44 360q0 64 22.5 127.5t65.5 113.5t105.5 81.5t142.5 31.5q95 0 162 -43.5t100 -111.5l-42 -24q-19 37 -44.5 62t-55 40.5t-61.5 22.5t-63 7q-68 0 -120 -27.5t-88 -71.5t-54.5 -99.5t-18.5 -111.5q0 -63 22 -120
t60 -100.5t90 -69.5t112 -26q32 0 66 8t65 25t58 43.5t45 62.5l44 -21q-18 -40 -49 -71t-69 -52t-80.5 -31.5t-83.5 -10.5q-73 0 -133.5 32t-104.5 83.5t-68.5 117t-24.5 133.5z" />
    <glyph glyph-name="ccaron" unicode="&#x10d;" horiz-adv-x="545" 
d="M211 730l85 -63l85 63l30 -17l-97 -81h-37l-96 81zM42 262q0 55 19 104t53 85t81 57t103 21q71 0 125 -32t81 -89l-49 -16q-23 43 -65.5 67.5t-93.5 24.5q-43 0 -80 -17t-64.5 -47t-43.5 -70.5t-16 -87.5t16.5 -88.5t44 -72t65 -48.5t79.5 -18q27 0 53.5 8t49 21t39 30.5
t22.5 36.5l49 -14q-10 -27 -30.5 -50.5t-48.5 -40.5t-62 -26.5t-70 -9.5q-55 0 -102 21.5t-81.5 59t-54 86.5t-19.5 105z" />
    <glyph glyph-name="Dcaron" unicode="&#x10e;" horiz-adv-x="713" 
d="M262 917l85 -63l85 63l30 -17l-97 -81h-37l-96 81zM93 0v710h236q84 0 147.5 -28t105.5 -76t63 -112.5t21 -137.5q0 -81 -23.5 -146.5t-67.5 -112t-106.5 -72t-139.5 -25.5h-236zM615 356q0 67 -19 123.5t-55.5 97.5t-89.5 64t-122 23h-185v-618h185q70 0 123.5 23.5
t89.5 65.5t54.5 98.5t18.5 122.5z" />
    <glyph glyph-name="dcaron" unicode="&#x10f;" horiz-adv-x="615" 
d="M607 629l-35 16l61 85h58zM292 -10q-54 0 -100 22.5t-79.5 60t-52 86t-18.5 100.5q0 54 18 103t50 86t75.5 59t95.5 22q34 0 64 -10t56 -26.5t47 -38.5t36 -47v323h50v-660q0 -25 21 -25v-45q-6 -1 -10 -1.5t-8 -0.5q-20 0 -34 15.5t-14 32.5v58q-32 -52 -85.5 -83
t-111.5 -31zM301 35q27 0 58 11t57.5 30.5t45.5 44.5t22 54v171q-11 28 -31.5 53.5t-46.5 44t-56 29.5t-58 11q-45 0 -82 -19.5t-63 -51t-40 -72t-14 -83.5q0 -45 16 -85t44.5 -71t66 -49t81.5 -18z" />
    <glyph glyph-name="Dcroat" unicode="&#x110;" horiz-adv-x="720" 
d="M100 0v336h-65v42h65v332h236q84 0 147.5 -28t105.5 -76t63 -112.5t21 -137.5q0 -81 -23.5 -146.5t-67.5 -112t-106.5 -72t-139.5 -25.5h-236zM622 356q0 67 -19 123.5t-55.5 97.5t-89.5 64t-122 23h-185v-286h178v-42h-178v-290h185q70 0 123.5 23.5t89.5 65.5
t54.5 98.5t18.5 122.5z" />
    <glyph glyph-name="dcroat" unicode="&#x111;" horiz-adv-x="615" 
d="M292 -10q-54 0 -100 22.5t-79.5 60t-52 86t-18.5 100.5q0 54 18 103t50 86t75.5 59t95.5 22q34 0 64 -10t56 -26.5t47 -38.5t36 -47v216h-118v36h118v71h50v-71h72v-36h-72v-553q0 -25 21 -25v-45q-6 -1 -10 -1.5t-8 -0.5q-20 0 -34 15.5t-14 32.5v58q-32 -52 -85.5 -83
t-111.5 -31zM301 35q27 0 58 11t57.5 30.5t45.5 44.5t22 54v171q-11 28 -31.5 53.5t-46.5 44t-56 29.5t-58 11q-45 0 -82 -19.5t-63 -51t-40 -72t-14 -83.5q0 -45 16 -85t44.5 -71t66 -49t81.5 -18z" />
    <glyph glyph-name="Emacron" unicode="&#x112;" 
d="M566 46v-46h-473v710h464v-46h-413v-279h361v-44h-361v-295h422zM198 859v37h285v-37h-285z" />
    <glyph glyph-name="emacron" unicode="&#x113;" horiz-adv-x="583" 
d="M299 -10q-55 0 -102 21.5t-81.5 59t-54 86.5t-19.5 105q0 55 19.5 103.5t53.5 85t80.5 57.5t100.5 21q55 0 102 -21.5t81 -58t53 -85t19 -102.5v-12q0 -8 -1 -10h-456q3 -45 21 -83.5t45.5 -66.5t63.5 -44t77 -16q27 0 53 7.5t48.5 20.5t40 31.5t27.5 40.5l44 -12
q-11 -28 -32.5 -51.5t-50 -40.5t-62.5 -26.5t-70 -9.5zM503 280q-3 46 -20.5 84t-45 65.5t-63.5 43t-77 15.5t-77 -15.5t-63.5 -43t-44 -66t-19.5 -83.5h410zM153 672v37h285v-37h-285z" />
    <glyph glyph-name="Ebreve" unicode="&#x114;" 
d="M566 46v-46h-473v710h464v-46h-413v-279h361v-44h-361v-295h422zM340 853q20 0 36.5 18.5t19.5 45.5h33q0 -19 -7 -36t-19.5 -29.5t-28.5 -19.5t-34 -7t-34.5 7t-28.5 19.5t-19 29.5t-7 36h33q0 -25 17 -44.5t39 -19.5z" />
    <glyph glyph-name="ebreve" unicode="&#x115;" horiz-adv-x="583" 
d="M299 -10q-55 0 -102 21.5t-81.5 59t-54 86.5t-19.5 105q0 55 19.5 103.5t53.5 85t80.5 57.5t100.5 21q55 0 102 -21.5t81 -58t53 -85t19 -102.5v-12q0 -8 -1 -10h-456q3 -45 21 -83.5t45.5 -66.5t63.5 -44t77 -16q27 0 53 7.5t48.5 20.5t40 31.5t27.5 40.5l44 -12
q-11 -28 -32.5 -51.5t-50 -40.5t-62.5 -26.5t-70 -9.5zM503 280q-3 46 -20.5 84t-45 65.5t-63.5 43t-77 15.5t-77 -15.5t-63.5 -43t-44 -66t-19.5 -83.5h410zM295 666q20 0 36.5 18.5t19.5 45.5h33q0 -19 -7 -36t-19.5 -29.5t-28.5 -19.5t-34 -7t-34.5 7t-28.5 19.5
t-19 29.5t-7 36h33q0 -25 17 -44.5t39 -19.5z" />
    <glyph glyph-name="Edotaccent" unicode="&#x116;" 
d="M566 46v-46h-473v710h464v-46h-413v-279h361v-44h-361v-295h422zM316 827v90h46v-90h-46z" />
    <glyph glyph-name="edotaccent" unicode="&#x117;" horiz-adv-x="583" 
d="M299 -10q-55 0 -102 21.5t-81.5 59t-54 86.5t-19.5 105q0 55 19.5 103.5t53.5 85t80.5 57.5t100.5 21q55 0 102 -21.5t81 -58t53 -85t19 -102.5v-12q0 -8 -1 -10h-456q3 -45 21 -83.5t45.5 -66.5t63.5 -44t77 -16q27 0 53 7.5t48.5 20.5t40 31.5t27.5 40.5l44 -12
q-11 -28 -32.5 -51.5t-50 -40.5t-62.5 -26.5t-70 -9.5zM503 280q-3 46 -20.5 84t-45 65.5t-63.5 43t-77 15.5t-77 -15.5t-63.5 -43t-44 -66t-19.5 -83.5h410zM272 640v90h46v-90h-46z" />
    <glyph glyph-name="Eogonek" unicode="&#x118;" 
d="M566 46v-46q-45 -29 -63.5 -50t-18.5 -44q0 -38 49 -45l-16 -30q-32 7 -49.5 25t-17.5 43t17.5 49.5t55.5 51.5h-430v710h464v-46h-413v-279h361v-44h-361v-295h422z" />
    <glyph glyph-name="eogonek" unicode="&#x119;" horiz-adv-x="583" 
d="M282 -176q-32 7 -49.5 25t-17.5 43t16.5 48.5t52.5 50.5q-52 3 -96.5 25.5t-76.5 59.5t-50.5 84.5t-18.5 101.5q0 55 19.5 103.5t53.5 85t80.5 57.5t100.5 21q55 0 102 -21.5t81 -58t53 -85t19 -102.5v-12q0 -8 -1 -10h-456q3 -45 21 -83.5t45.5 -66.5t63.5 -44t77 -16
q27 0 53 7.5t48.5 20.5t40 31.5t27.5 40.5l44 -12q-10 -25 -28.5 -46.5t-42.5 -38t-53.5 -27.5t-60.5 -14q-45 -29 -62.5 -49.5t-17.5 -43.5q0 -38 49 -45zM503 280q-3 46 -20.5 84t-45 65.5t-63.5 43t-77 15.5t-77 -15.5t-63.5 -43t-44 -66t-19.5 -83.5h410z" />
    <glyph glyph-name="Ecaron" unicode="&#x11a;" 
d="M255 917l85 -63l85 63l30 -17l-97 -81h-37l-96 81zM566 46v-46h-473v710h464v-46h-413v-279h361v-44h-361v-295h422z" />
    <glyph glyph-name="ecaron" unicode="&#x11b;" horiz-adv-x="583" 
d="M210 730l85 -63l85 63l30 -17l-97 -81h-37l-96 81zM299 -10q-55 0 -102 21.5t-81.5 59t-54 86.5t-19.5 105q0 55 19.5 103.5t53.5 85t80.5 57.5t100.5 21q55 0 102 -21.5t81 -58t53 -85t19 -102.5v-12q0 -8 -1 -10h-456q3 -45 21 -83.5t45.5 -66.5t63.5 -44t77 -16
q27 0 53 7.5t48.5 20.5t40 31.5t27.5 40.5l44 -12q-11 -28 -32.5 -51.5t-50 -40.5t-62.5 -26.5t-70 -9.5zM503 280q-3 46 -20.5 84t-45 65.5t-63.5 43t-77 15.5t-77 -15.5t-63.5 -43t-44 -66t-19.5 -83.5h410z" />
    <glyph glyph-name="Gcircumflex" unicode="&#x11c;" horiz-adv-x="717" 
d="M255 836l96 81h37l97 -81l-30 -17l-85 63l-85 -63zM616 111q-103 -116 -239 -116q-72 0 -133.5 31t-105.5 82t-69 116t-25 132q0 70 24.5 135t68 115t103.5 79.5t131 29.5q53 0 95.5 -11.5t76 -32t58 -49t41.5 -62.5l-42 -25q-36 70 -95.5 101.5t-134.5 31.5
q-63 0 -114 -27t-87 -71t-55 -100t-19 -115q0 -63 22 -119.5t60.5 -99.5t90.5 -68.5t112 -25.5q65 0 123.5 30t112.5 95v137h-161v41h205v-345h-44v111z" />
    <glyph glyph-name="gcircumflex" unicode="&#x11d;" 
d="M206 649l96 81h37l97 -81l-30 -17l-85 63l-85 -63zM288 -8q-54 0 -99 22.5t-77.5 60t-51 85.5t-18.5 99q0 53 17.5 102t49.5 86.5t76.5 59.5t98.5 22q68 0 118.5 -35.5t85.5 -86.5v113h46v-530q0 -53 -20 -93t-53.5 -66.5t-78 -40t-93.5 -13.5q-45 0 -81 8.5t-63.5 24
t-49 38t-37.5 49.5l34 23q31 -53 84 -77.5t113 -24.5q40 0 75.5 11t62 32.5t42 53.5t15.5 75v114q-32 -51 -85 -81.5t-111 -30.5zM300 35q33 0 64.5 12.5t57 32.5t42 45t20.5 50v171q-12 30 -32 55.5t-45.5 43.5t-55 28.5t-59.5 10.5q-47 0 -84 -20t-62.5 -52t-39 -72.5
t-13.5 -81.5q0 -45 16 -85t44 -71t66 -49t81 -18z" />
    <glyph glyph-name="Gbreve" unicode="&#x11e;" horiz-adv-x="717" 
d="M616 111q-103 -116 -239 -116q-72 0 -133.5 31t-105.5 82t-69 116t-25 132q0 70 24.5 135t68 115t103.5 79.5t131 29.5q53 0 95.5 -11.5t76 -32t58 -49t41.5 -62.5l-42 -25q-36 70 -95.5 101.5t-134.5 31.5q-63 0 -114 -27t-87 -71t-55 -100t-19 -115q0 -63 22 -119.5
t60.5 -99.5t90.5 -68.5t112 -25.5q65 0 123.5 30t112.5 95v137h-161v41h205v-345h-44v111zM370 853q20 0 36.5 18.5t19.5 45.5h33q0 -19 -7 -36t-19.5 -29.5t-28.5 -19.5t-34 -7t-34.5 7t-28.5 19.5t-19 29.5t-7 36h33q0 -25 17 -44.5t39 -19.5z" />
    <glyph glyph-name="gbreve" unicode="&#x11f;" 
d="M288 -8q-54 0 -99 22.5t-77.5 60t-51 85.5t-18.5 99q0 53 17.5 102t49.5 86.5t76.5 59.5t98.5 22q68 0 118.5 -35.5t85.5 -86.5v113h46v-530q0 -53 -20 -93t-53.5 -66.5t-78 -40t-93.5 -13.5q-45 0 -81 8.5t-63.5 24t-49 38t-37.5 49.5l34 23q31 -53 84 -77.5t113 -24.5
q40 0 75.5 11t62 32.5t42 53.5t15.5 75v114q-32 -51 -85 -81.5t-111 -30.5zM300 35q33 0 64.5 12.5t57 32.5t42 45t20.5 50v171q-12 30 -32 55.5t-45.5 43.5t-55 28.5t-59.5 10.5q-47 0 -84 -20t-62.5 -52t-39 -72.5t-13.5 -81.5q0 -45 16 -85t44 -71t66 -49t81 -18z
M321 666q20 0 36.5 18.5t19.5 45.5h33q0 -19 -7 -36t-19.5 -29.5t-28.5 -19.5t-34 -7t-34.5 7t-28.5 19.5t-19 29.5t-7 36h33q0 -25 17 -44.5t39 -19.5z" />
    <glyph glyph-name="Gdotaccent" unicode="&#x120;" horiz-adv-x="717" 
d="M616 111q-103 -116 -239 -116q-72 0 -133.5 31t-105.5 82t-69 116t-25 132q0 70 24.5 135t68 115t103.5 79.5t131 29.5q53 0 95.5 -11.5t76 -32t58 -49t41.5 -62.5l-42 -25q-36 70 -95.5 101.5t-134.5 31.5q-63 0 -114 -27t-87 -71t-55 -100t-19 -115q0 -63 22 -119.5
t60.5 -99.5t90.5 -68.5t112 -25.5q65 0 123.5 30t112.5 95v137h-161v41h205v-345h-44v111zM346 827v90h46v-90h-46z" />
    <glyph glyph-name="gdotaccent" unicode="&#x121;" 
d="M288 -8q-54 0 -99 22.5t-77.5 60t-51 85.5t-18.5 99q0 53 17.5 102t49.5 86.5t76.5 59.5t98.5 22q68 0 118.5 -35.5t85.5 -86.5v113h46v-530q0 -53 -20 -93t-53.5 -66.5t-78 -40t-93.5 -13.5q-45 0 -81 8.5t-63.5 24t-49 38t-37.5 49.5l34 23q31 -53 84 -77.5t113 -24.5
q40 0 75.5 11t62 32.5t42 53.5t15.5 75v114q-32 -51 -85 -81.5t-111 -30.5zM300 35q33 0 64.5 12.5t57 32.5t42 45t20.5 50v171q-12 30 -32 55.5t-45.5 43.5t-55 28.5t-59.5 10.5q-47 0 -84 -20t-62.5 -52t-39 -72.5t-13.5 -81.5q0 -45 16 -85t44 -71t66 -49t81 -18z
M298 640v90h46v-90h-46z" />
    <glyph glyph-name="Gcommaaccent" unicode="&#x122;" horiz-adv-x="717" 
d="M352 -187l15 68h-16v70h49v-70l-21 -68h-27zM616 111q-103 -116 -239 -116q-72 0 -133.5 31t-105.5 82t-69 116t-25 132q0 70 24.5 135t68 115t103.5 79.5t131 29.5q53 0 95.5 -11.5t76 -32t58 -49t41.5 -62.5l-42 -25q-36 70 -95.5 101.5t-134.5 31.5q-63 0 -114 -27
t-87 -71t-55 -100t-19 -115q0 -63 22 -119.5t60.5 -99.5t90.5 -68.5t112 -25.5q65 0 123.5 30t112.5 95v137h-161v41h205v-345h-44v111z" />
    <glyph glyph-name="gcommaaccent" unicode="&#x123;" 
d="M323 736l-15 -68h16v-70h-49v70l21 68h27zM288 -8q-54 0 -99 22.5t-77.5 60t-51 85.5t-18.5 99q0 53 17.5 102t49.5 86.5t76.5 59.5t98.5 22q68 0 118.5 -35.5t85.5 -86.5v113h46v-530q0 -53 -20 -93t-53.5 -66.5t-78 -40t-93.5 -13.5q-45 0 -81 8.5t-63.5 24t-49 38
t-37.5 49.5l34 23q31 -53 84 -77.5t113 -24.5q40 0 75.5 11t62 32.5t42 53.5t15.5 75v114q-32 -51 -85 -81.5t-111 -30.5zM300 35q33 0 64.5 12.5t57 32.5t42 45t20.5 50v171q-12 30 -32 55.5t-45.5 43.5t-55 28.5t-59.5 10.5q-47 0 -84 -20t-62.5 -52t-39 -72.5
t-13.5 -81.5q0 -45 16 -85t44 -71t66 -49t81 -18z" />
    <glyph glyph-name="Hcircumflex" unicode="&#x124;" horiz-adv-x="735" 
d="M255 836l96 81h37l97 -81l-30 -17l-85 63l-85 -63zM643 710v-710h-51v340h-448v-340h-51v710h51v-324h448v324h51z" />
    <glyph glyph-name="hcircumflex" unicode="&#x125;" horiz-adv-x="576" 
d="M213 648l92 81h36l94 -81l-29 -17l-82 63l-82 -63zM503 0h-50v290q0 193 -129 193q-32 0 -62.5 -12t-57 -34t-46.5 -51.5t-30 -63.5v-322h-50v730h50v-334q32 61 88.5 97t121.5 36q43 0 74 -16t51.5 -46t30 -72.5t9.5 -95.5v-299z" />
    <glyph glyph-name="Hbar" unicode="&#x126;" horiz-adv-x="745" 
d="M648 710v-127h50v-32h-50v-551h-51v340h-448v-340h-51v551h-50v32h50v127h51v-127h448v127h51zM597 386v165h-448v-165h448z" />
    <glyph glyph-name="hbar" unicode="&#x127;" horiz-adv-x="576" 
d="M503 0h-50v290q0 193 -129 193q-32 0 -62.5 -12t-57 -34t-46.5 -51.5t-30 -63.5v-322h-50v623h-66v36h66v71h50v-71h125v-36h-125v-227q32 61 88.5 97t121.5 36q43 0 74 -16t51.5 -46t30 -72.5t9.5 -95.5v-299z" />
    <glyph glyph-name="Itilde" unicode="&#x128;" horiz-adv-x="237" 
d="M93 0v710h51v-710h-51zM179 834q-22 0 -39 6t-31 13.5t-27.5 14t-28.5 6.5q-17 0 -27 -7t-15 -15.5t-7 -16t-2 -9.5h-34q0 4 3 17.5t12.5 28t26 26t43.5 11.5q20 0 35.5 -6.5t29.5 -14t28.5 -13.5t33.5 -6q20 0 31.5 7t17 15.5t7 16t1.5 9.5h34q0 -5 -3.5 -18.5
t-13 -27.5t-27.5 -25.5t-48 -11.5z" />
    <glyph glyph-name="itilde" unicode="&#x129;" horiz-adv-x="207" 
d="M78 0v520h50v-520h-50zM164 647q-22 0 -39 6t-31 13.5t-27.5 14t-28.5 6.5q-17 0 -27 -7t-15 -15.5t-7 -16t-2 -9.5h-34q0 4 3 17.5t12.5 28t26 26t43.5 11.5q20 0 35.5 -6.5t29.5 -14t28.5 -13.5t33.5 -6q20 0 31.5 7t17 15.5t7 16t1.5 9.5h34q0 -5 -3.5 -18.5
t-13 -27.5t-27.5 -25.5t-48 -11.5z" />
    <glyph glyph-name="Imacron" unicode="&#x12a;" horiz-adv-x="237" 
d="M93 0v710h51v-710h-51zM-24 859v37h285v-37h-285z" />
    <glyph glyph-name="imacron" unicode="&#x12b;" horiz-adv-x="207" 
d="M78 0v520h50v-520h-50zM-39 672v37h285v-37h-285z" />
    <glyph glyph-name="Ibreve" unicode="&#x12c;" horiz-adv-x="237" 
d="M93 0v710h51v-710h-51zM119 853q20 0 36.5 18.5t19.5 45.5h33q0 -19 -7 -36t-19.5 -29.5t-28.5 -19.5t-34 -7t-34.5 7t-28.5 19.5t-19 29.5t-7 36h33q0 -25 17 -44.5t39 -19.5z" />
    <glyph glyph-name="ibreve" unicode="&#x12d;" horiz-adv-x="207" 
d="M78 0v520h50v-520h-50zM104 666q20 0 36.5 18.5t19.5 45.5h33q0 -19 -7 -36t-19.5 -29.5t-28.5 -19.5t-34 -7t-34.5 7t-28.5 19.5t-19 29.5t-7 36h33q0 -25 17 -44.5t39 -19.5z" />
    <glyph glyph-name="Iogonek" unicode="&#x12e;" horiz-adv-x="237" 
d="M95 -169q-32 7 -49.5 25t-17.5 43t17.5 49.5t55.5 51.5h-8v710h51v-710q-45 -29 -63.5 -50t-18.5 -44q0 -38 49 -45z" />
    <glyph glyph-name="iogonek" unicode="&#x12f;" horiz-adv-x="207" 
d="M80 -169q-32 7 -49.5 25t-17.5 43t17.5 49.5t55.5 51.5h-7v520h50v-520q-45 -29 -63.5 -50t-18.5 -44q0 -38 49 -45zM79 638v92h50v-92h-50z" />
    <glyph glyph-name="Idotaccent" unicode="&#x130;" horiz-adv-x="237" 
d="M93 0v710h51v-710h-51zM95 827v90h46v-90h-46z" />
    <glyph glyph-name="dotlessi" unicode="&#x131;" horiz-adv-x="207" 
d="M78 0v520h50v-520h-50z" />
    <glyph glyph-name="IJ" unicode="&#x132;" horiz-adv-x="715" 
d="M93 0v710h51v-710h-51zM269 74q25 -17 60 -27.5t78 -10.5q58 0 92 21t52 61t23.5 98.5t5.5 132.5v361h51v-361q0 -81 -7 -147.5t-30.5 -113.5t-67.5 -73t-119 -26q-90 0 -154 44z" />
    <glyph glyph-name="ij" unicode="&#x133;" horiz-adv-x="421" 
d="M78 0v520h50v-520h-50zM78 638v92h50v-92h-50zM197 -177q-32 0 -59.5 8.5t-49.5 28.5l27 33q17 -14 37 -19t40 -5q19 0 37 7.5t32 21t23 32t9 40.5v550h50v-548q0 -33 -12.5 -60t-33.5 -47t-47 -31t-53 -11zM293 638v92h50v-92h-50z" />
    <glyph glyph-name="Jcircumflex" unicode="&#x134;" horiz-adv-x="478" 
d="M254 836l96 81h37l97 -81l-30 -17l-85 63l-85 -63zM32 74q25 -17 60 -27.5t78 -10.5q58 0 92 21t52 61t23.5 98.5t5.5 132.5v361h51v-361q0 -81 -7 -147.5t-30.5 -113.5t-67.5 -73t-119 -26q-90 0 -154 44z" />
    <glyph glyph-name="jcircumflex" unicode="&#x135;" horiz-adv-x="207" 
d="M-18 -177q-32 0 -59.5 8.5t-48.5 28.5l27 33q16 -14 36.5 -19t40.5 -5q18 0 36 7.5t32.5 21t23 32t8.5 40.5v550h50v-548q0 -33 -12.5 -60t-33 -47t-47 -31t-53.5 -11zM-12 649l96 81h37l97 -81l-30 -17l-85 63l-85 -63z" />
    <glyph glyph-name="Kcommaaccent" unicode="&#x136;" horiz-adv-x="635" 
d="M298 -187l15 68h-16v70h49v-70l-21 -68h-27zM93 0v710h51v-431l414 431h59l-295 -311l310 -399h-58l-285 368l-145 -149v-219h-51z" />
    <glyph glyph-name="kcommaaccent" unicode="&#x137;" horiz-adv-x="522" 
d="M245 -187l15 68h-16v70h49v-70l-21 -68h-27zM454 0l-203 278l-123 -113v-165h-50v730h50v-510l316 299h58l-217 -211l224 -308h-55z" />
    <glyph glyph-name="kgreenlandic" unicode="&#x138;" horiz-adv-x="522" 
d="M454 0l-203 278l-123 -113v-165h-50v520h50v-300l316 299h58l-217 -211l224 -308h-55z" />
    <glyph glyph-name="Lacute" unicode="&#x139;" horiz-adv-x="581" 
d="M338 816l-35 16l61 85h58zM93 0v710h51v-664h424v-46h-475z" />
    <glyph glyph-name="lacute" unicode="&#x13a;" horiz-adv-x="259" 
d="M98 775l-35 16l61 85h58zM82 730h51v-627q0 -29 16.5 -46t45.5 -17q11 0 26.5 2.5t28.5 7.5l10 -40q-17 -7 -42 -11.5t-43 -4.5q-42 0 -67.5 25.5t-25.5 68.5v642z" />
    <glyph glyph-name="Lcommaaccent" unicode="&#x13b;" horiz-adv-x="581" 
d="M306 -187l15 68h-16v70h49v-70l-21 -68h-27zM93 0v710h51v-664h424v-46h-475z" />
    <glyph glyph-name="lcommaaccent" unicode="&#x13c;" horiz-adv-x="259" 
d="M143 -187l15 68h-16v70h49v-70l-21 -68h-27zM82 730h51v-627q0 -29 16.5 -46t45.5 -17q11 0 26.5 2.5t28.5 7.5l10 -40q-17 -7 -42 -11.5t-43 -4.5q-42 0 -67.5 25.5t-25.5 68.5v642z" />
    <glyph glyph-name="Lcaron" unicode="&#x13d;" horiz-adv-x="581" 
d="M372 629l-35 16l61 85h58zM93 0v710h51v-664h424v-46h-475z" />
    <glyph glyph-name="lcaron" unicode="&#x13e;" horiz-adv-x="259" 
d="M215 629l-35 16l61 85h58zM82 730h51v-627q0 -29 16.5 -46t45.5 -17q11 0 26.5 2.5t28.5 7.5l10 -40q-17 -7 -42 -11.5t-43 -4.5q-42 0 -67.5 25.5t-25.5 68.5v642z" />
    <glyph glyph-name="Ldot" unicode="&#x13f;" horiz-adv-x="581" 
d="M93 0v710h51v-664h424v-46h-475zM366 353v101h44v-101h-44z" />
    <glyph glyph-name="ldot" unicode="&#x140;" horiz-adv-x="292" 
d="M82 730h51v-627q0 -29 16.5 -46t45.5 -17q11 0 26.5 2.5t28.5 7.5l10 -40q-17 -7 -42 -11.5t-43 -4.5q-42 0 -67.5 25.5t-25.5 68.5v642zM231 259v101h44v-101h-44z" />
    <glyph glyph-name="Lslash" unicode="&#x141;" horiz-adv-x="588" 
d="M100 0v279l-60 -53l-19 31l79 70v383h51v-337l167 149l19 -30l-186 -167v-279h424v-46h-475z" />
    <glyph glyph-name="lslash" unicode="&#x142;" horiz-adv-x="277" 
d="M99 352l-67 -57l-20 29l87 75v331h51v-287l90 77l20 -30l-110 -94v-293q0 -29 16.5 -46t45.5 -17q11 0 26.5 2.5t28.5 7.5l10 -40q-17 -7 -42 -11.5t-43 -4.5q-42 0 -67.5 25.5t-25.5 68.5v264z" />
    <glyph glyph-name="Nacute" unicode="&#x143;" horiz-adv-x="773" 
d="M389 816l-35 16l61 85h58zM144 614v-614h-51v710h39l498 -625v625h51v-710h-47z" />
    <glyph glyph-name="nacute" unicode="&#x144;" horiz-adv-x="576" 
d="M289 629l-35 16l61 85h58zM503 0h-50v290q0 101 -28.5 147t-90.5 46q-33 0 -65.5 -12t-60.5 -34t-49 -51.5t-31 -63.5v-322h-50v520h47v-124q16 30 39.5 54.5t53 42t62.5 27t68 9.5q85 0 120 -59.5t35 -170.5v-299z" />
    <glyph glyph-name="Ncommaaccent" unicode="&#x145;" horiz-adv-x="773" 
d="M365 -187l15 68h-16v70h49v-70l-21 -68h-27zM144 614v-614h-51v710h39l498 -625v625h51v-710h-47z" />
    <glyph glyph-name="ncommaaccent" unicode="&#x146;" horiz-adv-x="576" 
d="M259 -187l15 68h-16v70h49v-70l-21 -68h-27zM503 0h-50v290q0 101 -28.5 147t-90.5 46q-33 0 -65.5 -12t-60.5 -34t-49 -51.5t-31 -63.5v-322h-50v520h47v-124q16 30 39.5 54.5t53 42t62.5 27t68 9.5q85 0 120 -59.5t35 -170.5v-299z" />
    <glyph glyph-name="Ncaron" unicode="&#x147;" horiz-adv-x="773" 
d="M306 917l85 -63l85 63l30 -17l-97 -81h-37l-96 81zM144 614v-614h-51v710h39l498 -625v625h51v-710h-47z" />
    <glyph glyph-name="ncaron" unicode="&#x148;" horiz-adv-x="576" 
d="M205 730l85 -63l85 63l30 -17l-97 -81h-37l-96 81zM503 0h-50v290q0 101 -28.5 147t-90.5 46q-33 0 -65.5 -12t-60.5 -34t-49 -51.5t-31 -63.5v-322h-50v520h47v-124q16 30 39.5 54.5t53 42t62.5 27t68 9.5q85 0 120 -59.5t35 -170.5v-299z" />
    <glyph glyph-name="napostrophe" unicode="&#x149;" horiz-adv-x="576" 
d="M36 629l-34 16l39 54v31h80zM503 0h-50v290q0 101 -28.5 147t-90.5 46q-33 0 -65.5 -12t-60.5 -34t-49 -51.5t-31 -63.5v-322h-50v520h47v-124q16 30 39.5 54.5t53 42t62.5 27t68 9.5q85 0 120 -59.5t35 -170.5v-299z" />
    <glyph glyph-name="Eng" unicode="&#x14a;" horiz-adv-x="770" 
d="M144 613v-613h-51v710h39l494 -623v622h51v-738q0 -33 -13 -60t-33.5 -46.5t-46.5 -30.5t-53 -11q-32 0 -59.5 8.5t-49.5 28.5l27 33q17 -14 37 -19t40 -5q18 0 36.5 7.5t32.5 21t23 32t9 40.5v34z" />
    <glyph glyph-name="eng" unicode="&#x14b;" horiz-adv-x="576" 
d="M358 -177q-32 0 -60 8.5t-49 28.5l27 33q17 -14 37 -19t40 -5q18 0 36 7.5t32.5 21t23 32t8.5 40.5v320q0 101 -28.5 147t-90.5 46q-33 0 -65.5 -12t-60.5 -34t-49 -51.5t-31 -63.5v-322h-50v520h47v-124q16 30 39.5 54.5t53 42t62.5 27t68 9.5q85 0 120 -59.5t35 -170.5
v-327q0 -33 -12.5 -60t-33 -47t-46.5 -31t-53 -11z" />
    <glyph glyph-name="Omacron" unicode="&#x14c;" horiz-adv-x="753" 
d="M235 859v37h285v-37h-285zM376 -5q-74 0 -135 31t-105 81t-68 115t-24 133q0 71 25.5 136t70 115t105.5 79.5t132 29.5q74 0 135.5 -31.5t105 -82.5t67.5 -115.5t24 -130.5q0 -72 -25.5 -137t-70 -114.5t-105.5 -79t-132 -29.5zM95 355q0 -61 20.5 -117.5t58 -100
t89.5 -69.5t114 -26q64 0 115.5 27t88 71.5t56.5 100.5t20 114q0 61 -21 117.5t-58.5 100t-88.5 69.5t-112 26q-64 0 -116 -27t-89 -71.5t-57 -100.5t-20 -114z" />
    <glyph glyph-name="omacron" unicode="&#x14d;" horiz-adv-x="592" 
d="M154 672v37h285v-37h-285zM296 -10q-55 0 -101.5 21.5t-80.5 58.5t-53 86t-19 103q0 55 19.5 104t53.5 86t80.5 58.5t100.5 21.5t100 -21.5t80.5 -58.5t54 -86t19.5 -104q0 -54 -19.5 -103t-53.5 -86t-80.5 -58.5t-100.5 -21.5zM92 257q0 -46 16 -86.5t43.5 -70.5
t64.5 -47.5t79 -17.5t79 17.5t65 48.5t44 71.5t16 87.5q0 46 -16 86.5t-44 71t-64.5 48.5t-78.5 18t-79 -18t-64.5 -49t-44 -72.5t-16.5 -87.5z" />
    <glyph glyph-name="Obreve" unicode="&#x14e;" horiz-adv-x="753" 
d="M376 -5q-74 0 -135 31t-105 81t-68 115t-24 133q0 71 25.5 136t70 115t105.5 79.5t132 29.5q74 0 135.5 -31.5t105 -82.5t67.5 -115.5t24 -130.5q0 -72 -25.5 -137t-70 -114.5t-105.5 -79t-132 -29.5zM95 355q0 -61 20.5 -117.5t58 -100t89.5 -69.5t114 -26
q64 0 115.5 27t88 71.5t56.5 100.5t20 114q0 61 -21 117.5t-58.5 100t-88.5 69.5t-112 26q-64 0 -116 -27t-89 -71.5t-57 -100.5t-20 -114zM378 853q20 0 36.5 18.5t19.5 45.5h33q0 -19 -7 -36t-19.5 -29.5t-28.5 -19.5t-34 -7t-34.5 7t-28.5 19.5t-19 29.5t-7 36h33
q0 -25 17 -44.5t39 -19.5z" />
    <glyph glyph-name="obreve" unicode="&#x14f;" horiz-adv-x="592" 
d="M296 -10q-55 0 -101.5 21.5t-80.5 58.5t-53 86t-19 103q0 55 19.5 104t53.5 86t80.5 58.5t100.5 21.5t100 -21.5t80.5 -58.5t54 -86t19.5 -104q0 -54 -19.5 -103t-53.5 -86t-80.5 -58.5t-100.5 -21.5zM92 257q0 -46 16 -86.5t43.5 -70.5t64.5 -47.5t79 -17.5t79 17.5
t65 48.5t44 71.5t16 87.5q0 46 -16 86.5t-44 71t-64.5 48.5t-78.5 18t-79 -18t-64.5 -49t-44 -72.5t-16.5 -87.5zM296 666q20 0 36.5 18.5t19.5 45.5h33q0 -19 -7 -36t-19.5 -29.5t-28.5 -19.5t-34 -7t-34.5 7t-28.5 19.5t-19 29.5t-7 36h33q0 -25 17 -44.5t39 -19.5z" />
    <glyph glyph-name="Ohungarumlaut" unicode="&#x150;" horiz-adv-x="753" 
d="M314 817l-29 16l59 85h53zM430 817l-30 16l60 85h53zM376 -5q-74 0 -135 31t-105 81t-68 115t-24 133q0 71 25.5 136t70 115t105.5 79.5t132 29.5q74 0 135.5 -31.5t105 -82.5t67.5 -115.5t24 -130.5q0 -72 -25.5 -137t-70 -114.5t-105.5 -79t-132 -29.5zM95 355
q0 -61 20.5 -117.5t58 -100t89.5 -69.5t114 -26q64 0 115.5 27t88 71.5t56.5 100.5t20 114q0 61 -21 117.5t-58.5 100t-88.5 69.5t-112 26q-64 0 -116 -27t-89 -71.5t-57 -100.5t-20 -114z" />
    <glyph glyph-name="ohungarumlaut" unicode="&#x151;" horiz-adv-x="592" 
d="M232 629l-29 16l59 85h53zM348 629l-30 16l60 85h53zM296 -10q-55 0 -101.5 21.5t-80.5 58.5t-53 86t-19 103q0 55 19.5 104t53.5 86t80.5 58.5t100.5 21.5t100 -21.5t80.5 -58.5t54 -86t19.5 -104q0 -54 -19.5 -103t-53.5 -86t-80.5 -58.5t-100.5 -21.5zM92 257
q0 -46 16 -86.5t43.5 -70.5t64.5 -47.5t79 -17.5t79 17.5t65 48.5t44 71.5t16 87.5q0 46 -16 86.5t-44 71t-64.5 48.5t-78.5 18t-79 -18t-64.5 -49t-44 -72.5t-16.5 -87.5z" />
    <glyph glyph-name="OE" unicode="&#x152;" horiz-adv-x="1173" 
d="M1128 46v-46h-469v200q-17 -43 -45 -80.5t-64.5 -65t-80 -43.5t-91.5 -16q-74 0 -135.5 30.5t-105.5 81t-68.5 115.5t-24.5 133q0 71 25.5 136t70 115t105.5 79.5t132 29.5q50 0 94.5 -16.5t80.5 -44.5t63 -65.5t44 -79.5v201h460v-46h-410v-278h356v-47h-356v-293h419z
M377 42q64 0 115.5 27t88 71.5t56.5 100.5t20 115q0 61 -21 117t-58.5 99.5t-88.5 69.5t-112 26q-64 0 -116 -27t-89 -71.5t-57 -100.5t-20 -114q0 -61 20.5 -117.5t58 -100t89.5 -69.5t114 -26z" />
    <glyph glyph-name="oe" unicode="&#x153;" horiz-adv-x="1040" 
d="M294 -10q-53 0 -99 21t-80 57t-53.5 85t-19.5 105q0 57 19.5 106t54 86t81 58t100.5 21q39 0 74.5 -12.5t65 -35.5t52 -55.5t34.5 -72.5q26 83 86.5 129.5t144.5 46.5q54 0 100.5 -20.5t80.5 -58.5t53.5 -91t19.5 -119h-457q4 -44 22 -82t47 -66.5t67 -45t80 -16.5
q28 0 55 7.5t49.5 20.5t39.5 31.5t26 40.5l43 -12q-12 -29 -34 -52.5t-50.5 -40t-62.5 -26t-69 -9.5q-39 0 -76 12.5t-68.5 36t-55.5 55.5t-39 71q-15 -40 -38.5 -72.5t-53 -55t-65 -35t-74.5 -12.5zM295 35q43 0 80 17.5t64.5 47.5t43.5 71t16 88t-16 88t-43 71.5t-64 48
t-79 17.5t-79.5 -18t-65.5 -49t-44 -72.5t-16 -88.5t16 -87t43.5 -70t64.5 -47t79 -17zM959 277q-3 46 -20 85t-44.5 67t-64 43.5t-77.5 15.5t-77 -16t-63 -44t-43.5 -66.5t-18.5 -84.5h408z" />
    <glyph glyph-name="Racute" unicode="&#x154;" horiz-adv-x="649" 
d="M316 819l-35 16l61 85h58zM93 0v710h295q45 0 83 -19t65.5 -50.5t43 -71t15.5 -79.5q0 -39 -12 -75.5t-34 -65.5t-53 -48t-68 -25l177 -276h-59l-172 268h-230v-268h-51zM144 315h249q34 0 62 15t48 39.5t30.5 56t10.5 64.5q0 34 -12.5 65.5t-34 55.5t-50 38.5
t-61.5 14.5h-242v-349z" />
    <glyph glyph-name="racute" unicode="&#x155;" horiz-adv-x="341" 
d="M191 629l-35 16l61 85h58zM324 475q-70 -2 -122.5 -41.5t-73.5 -108.5v-325h-50v520h48v-128q27 55 71.5 89.5t95.5 39.5q10 1 18 1h13v-47z" />
    <glyph glyph-name="Rcommaaccent" unicode="&#x156;" horiz-adv-x="649" 
d="M297 -187l15 68h-16v70h49v-70l-21 -68h-27zM93 0v710h295q45 0 83 -19t65.5 -50.5t43 -71t15.5 -79.5q0 -39 -12 -75.5t-34 -65.5t-53 -48t-68 -25l177 -276h-59l-172 268h-230v-268h-51zM144 315h249q34 0 62 15t48 39.5t30.5 56t10.5 64.5q0 34 -12.5 65.5t-34 55.5
t-50 38.5t-61.5 14.5h-242v-349z" />
    <glyph glyph-name="rcommaaccent" unicode="&#x157;" horiz-adv-x="341" 
d="M76 -187l15 68h-16v70h49v-70l-21 -68h-27zM324 475q-70 -2 -122.5 -41.5t-73.5 -108.5v-325h-50v520h48v-128q27 55 71.5 89.5t95.5 39.5q10 1 18 1h13v-47z" />
    <glyph glyph-name="Rcaron" unicode="&#x158;" horiz-adv-x="649" 
d="M232 920l85 -63l85 63l30 -17l-97 -81h-37l-96 81zM93 0v710h295q45 0 83 -19t65.5 -50.5t43 -71t15.5 -79.5q0 -39 -12 -75.5t-34 -65.5t-53 -48t-68 -25l177 -276h-59l-172 268h-230v-268h-51zM144 315h249q34 0 62 15t48 39.5t30.5 56t10.5 64.5q0 34 -12.5 65.5
t-34 55.5t-50 38.5t-61.5 14.5h-242v-349z" />
    <glyph glyph-name="rcaron" unicode="&#x159;" horiz-adv-x="341" 
d="M107 730l85 -63l85 63l30 -17l-97 -81h-37l-96 81zM324 475q-70 -2 -122.5 -41.5t-73.5 -108.5v-325h-50v520h48v-128q27 55 71.5 89.5t95.5 39.5q10 1 18 1h13v-47z" />
    <glyph glyph-name="Sacute" unicode="&#x15a;" horiz-adv-x="605" 
d="M311 835l-35 16l61 85h58zM506 592q-69 77 -195 77q-104 0 -151.5 -39.5t-47.5 -106.5q0 -34 12 -56.5t37.5 -38.5t64.5 -27t94 -23q57 -12 103.5 -26.5t79 -36.5t50 -54t17.5 -79t-18.5 -82t-52 -58.5t-80 -35.5t-103.5 -12q-166 0 -281 106l27 41q45 -47 110 -74.5
t146 -27.5q93 0 145.5 34t52.5 103q0 35 -14 59.5t-41.5 42.5t-69.5 31t-98 25q-57 12 -100.5 25.5t-73 34t-44.5 49.5t-15 73q0 48 18.5 85t51.5 62.5t79 38.5t102 13q69 0 123 -20.5t98 -62.5z" />
    <glyph glyph-name="sacute" unicode="&#x15b;" horiz-adv-x="481" 
d="M243 629l-35 16l61 85h58zM243 -10q-60 0 -115 20t-96 60l25 34q42 -38 87 -56t99 -18q68 0 109.5 28.5t41.5 79.5q0 24 -10.5 40.5t-31.5 28t-52 20.5t-72 19q-44 10 -76.5 20t-53.5 24t-31.5 34t-10.5 51q0 39 15 68t41.5 48t61 28.5t73.5 9.5q61 0 108 -20.5t73 -52.5
l-28 -27q-26 30 -67.5 45t-88.5 15q-29 0 -54.5 -6t-44.5 -19t-30 -33.5t-11 -48.5q0 -23 7.5 -37t24 -24t42.5 -17.5t62 -16.5q49 -12 87 -23t63.5 -27t39 -38t13.5 -56q0 -70 -54.5 -111.5t-145.5 -41.5z" />
    <glyph glyph-name="Scircumflex" unicode="&#x15c;" horiz-adv-x="605" 
d="M197 855l96 81h37l97 -81l-30 -17l-85 63l-85 -63zM506 592q-69 77 -195 77q-104 0 -151.5 -39.5t-47.5 -106.5q0 -34 12 -56.5t37.5 -38.5t64.5 -27t94 -23q57 -12 103.5 -26.5t79 -36.5t50 -54t17.5 -79t-18.5 -82t-52 -58.5t-80 -35.5t-103.5 -12q-166 0 -281 106
l27 41q45 -47 110 -74.5t146 -27.5q93 0 145.5 34t52.5 103q0 35 -14 59.5t-41.5 42.5t-69.5 31t-98 25q-57 12 -100.5 25.5t-73 34t-44.5 49.5t-15 73q0 48 18.5 85t51.5 62.5t79 38.5t102 13q69 0 123 -20.5t98 -62.5z" />
    <glyph glyph-name="scircumflex" unicode="&#x15d;" horiz-adv-x="481" 
d="M129 649l96 81h37l97 -81l-30 -17l-85 63l-85 -63zM243 -10q-60 0 -115 20t-96 60l25 34q42 -38 87 -56t99 -18q68 0 109.5 28.5t41.5 79.5q0 24 -10.5 40.5t-31.5 28t-52 20.5t-72 19q-44 10 -76.5 20t-53.5 24t-31.5 34t-10.5 51q0 39 15 68t41.5 48t61 28.5t73.5 9.5
q61 0 108 -20.5t73 -52.5l-28 -27q-26 30 -67.5 45t-88.5 15q-29 0 -54.5 -6t-44.5 -19t-30 -33.5t-11 -48.5q0 -23 7.5 -37t24 -24t42.5 -17.5t62 -16.5q49 -12 87 -23t63.5 -27t39 -38t13.5 -56q0 -70 -54.5 -111.5t-145.5 -41.5z" />
    <glyph glyph-name="uni015E" unicode="&#x15e;" horiz-adv-x="606" 
d="M246 -125q14 -7 37.5 -13t49.5 -6q58 0 58 37q0 20 -13.5 28t-35.5 8q-21 0 -44 -5t-37 -9l44 79q-80 2 -146.5 28t-122.5 78l27 41q45 -47 110 -74.5t146 -27.5q93 0 145.5 34t52.5 103q0 35 -14 59.5t-41.5 42.5t-69.5 31t-98 25q-57 12 -100.5 25.5t-73 34t-44.5 49.5
t-15 73q0 48 18.5 85t51.5 62.5t79 38.5t102 13q69 0 123 -20.5t98 -62.5l-26 -40q-69 77 -195 77q-104 0 -151.5 -39.5t-47.5 -106.5q0 -34 12 -56.5t37.5 -38.5t64.5 -27t94 -23q57 -12 103.5 -26.5t79 -36.5t50 -54t17.5 -79q0 -45 -16.5 -79t-47 -57.5t-73.5 -36
t-95 -14.5l-29 -48q9 4 20.5 5t19.5 1q34 0 53 -15t19 -44q0 -32 -24 -48.5t-69 -16.5q-29 0 -53.5 5.5t-43.5 13.5z" />
    <glyph glyph-name="uni015F" unicode="&#x15f;" horiz-adv-x="482" 
d="M167 -125q14 -7 37.5 -13t49.5 -6q58 0 58 37q0 20 -13.5 28t-35.5 8q-21 0 -44 -5t-37 -9l42 76q-55 3 -104.5 22.5t-87.5 56.5l25 34q42 -38 87 -56t99 -18q68 0 109.5 28.5t41.5 79.5q0 24 -10.5 40.5t-31.5 28t-52 20.5t-72 19q-44 10 -76.5 20t-53.5 24t-31.5 34
t-10.5 51q0 39 15 68t41.5 48t61 28.5t73.5 9.5q61 0 108 -20.5t73 -52.5l-28 -27q-26 30 -67.5 45t-88.5 15q-29 0 -54.5 -6t-44.5 -19t-30 -33.5t-11 -48.5q0 -23 7.5 -37t24 -24t42.5 -17.5t62 -16.5q49 -12 87 -23t63.5 -27t39 -38t13.5 -56q0 -68 -50.5 -108.5
t-135.5 -43.5l-26 -44q9 4 20.5 5t19.5 1q34 0 53 -15t19 -44q0 -32 -24 -48.5t-69 -16.5q-29 0 -53.5 5.5t-43.5 13.5z" />
    <glyph glyph-name="Scaron" unicode="&#x160;" horiz-adv-x="605" 
d="M227 936l85 -63l85 63l30 -17l-97 -81h-37l-96 81zM506 592q-69 77 -195 77q-104 0 -151.5 -39.5t-47.5 -106.5q0 -34 12 -56.5t37.5 -38.5t64.5 -27t94 -23q57 -12 103.5 -26.5t79 -36.5t50 -54t17.5 -79t-18.5 -82t-52 -58.5t-80 -35.5t-103.5 -12q-166 0 -281 106
l27 41q45 -47 110 -74.5t146 -27.5q93 0 145.5 34t52.5 103q0 35 -14 59.5t-41.5 42.5t-69.5 31t-98 25q-57 12 -100.5 25.5t-73 34t-44.5 49.5t-15 73q0 48 18.5 85t51.5 62.5t79 38.5t102 13q69 0 123 -20.5t98 -62.5z" />
    <glyph glyph-name="scaron" unicode="&#x161;" horiz-adv-x="481" 
d="M159 730l85 -63l85 63l30 -17l-97 -81h-37l-96 81zM243 -10q-60 0 -115 20t-96 60l25 34q42 -38 87 -56t99 -18q68 0 109.5 28.5t41.5 79.5q0 24 -10.5 40.5t-31.5 28t-52 20.5t-72 19q-44 10 -76.5 20t-53.5 24t-31.5 34t-10.5 51q0 39 15 68t41.5 48t61 28.5t73.5 9.5
q61 0 108 -20.5t73 -52.5l-28 -27q-26 30 -67.5 45t-88.5 15q-29 0 -54.5 -6t-44.5 -19t-30 -33.5t-11 -48.5q0 -23 7.5 -37t24 -24t42.5 -17.5t62 -16.5q49 -12 87 -23t63.5 -27t39 -38t13.5 -56q0 -70 -54.5 -111.5t-145.5 -41.5z" />
    <glyph glyph-name="uni0162" unicode="&#x162;" horiz-adv-x="605" 
d="M225 -125q14 -7 37.5 -13t49.5 -6q58 0 58 37q0 20 -13.5 28t-35.5 8q-21 0 -44 -5t-37 -9l47 85h-10v664h-260v46h571v-46h-260v-664h-7l-32 -53q9 4 20.5 5t19.5 1q34 0 53 -15t19 -44q0 -32 -24 -48.5t-69 -16.5q-29 0 -53.5 5.5t-43.5 13.5z" />
    <glyph glyph-name="uni0163" unicode="&#x163;" horiz-adv-x="320" 
d="M124 -125q14 -7 37.5 -13t49.5 -6q58 0 58 37q0 20 -13.5 28t-35.5 8q-21 0 -44 -5t-37 -9l45 80q-36 5 -60.5 28t-24.5 64v392h-73v41h73v178h50v-178h121v-41h-121v-380q0 -29 20 -43.5t45 -14.5q31 0 53.5 10.5t27.5 13.5l15 -40q-7 -5 -32 -16t-61 -14l-29 -48
q9 4 20.5 5t19.5 1q34 0 53 -15t19 -44q0 -32 -24 -48.5t-69 -16.5q-29 0 -53.5 5.5t-43.5 13.5z" />
    <glyph glyph-name="Tcaron" unicode="&#x164;" horiz-adv-x="606" 
d="M220 917l85 -63l85 63l30 -17l-97 -81h-37l-96 81zM589 664h-260v-664h-51v664h-260v46h571v-46z" />
    <glyph glyph-name="tcaron" unicode="&#x165;" horiz-adv-x="320" 
d="M254 629l-35 16l61 85h58zM310 25q-4 -2 -13.5 -7.5t-24 -10.5t-32.5 -9t-39 -4t-39.5 6t-32.5 18t-22 29t-8 40v392h-73v41h73v178h50v-178h121v-41h-121v-380q0 -29 20 -43.5t45 -14.5q31 0 53.5 10.5t27.5 13.5z" />
    <glyph glyph-name="Tbar" unicode="&#x166;" horiz-adv-x="641" 
d="M606 664h-260v-252h228v-32h-228v-380h-51v380h-228v32h228v252h-260v46h571v-46z" />
    <glyph glyph-name="tbar" unicode="&#x167;" horiz-adv-x="322" 
d="M311 25q-4 -2 -13.5 -7.5t-24 -10.5t-32.5 -9t-39 -4t-39.5 6t-32.5 18t-22 29t-8 40v232h-73v36h73v124h-73v41h73v178h50v-178h121v-41h-121v-124h121v-36h-121v-220q0 -29 20 -43.5t45 -14.5q31 0 53.5 10.5t27.5 13.5z" />
    <glyph glyph-name="Utilde" unicode="&#x168;" horiz-adv-x="756" 
d="M378 42q72 0 119.5 27t75 71t39 100t11.5 113v357h51v-357q0 -71 -15.5 -136t-50.5 -114.5t-91 -78.5t-138 -29q-85 0 -142 30.5t-91.5 81t-49 114.5t-14.5 132v357h51v-357q0 -59 11.5 -115t40 -99.5t75.5 -70t118 -26.5zM440 834q-22 0 -39 6t-31 13.5t-27.5 14
t-28.5 6.5q-17 0 -27 -7t-15 -15.5t-7 -16t-2 -9.5h-34q0 4 3 17.5t12.5 28t26 26t43.5 11.5q20 0 35.5 -6.5t29.5 -14t28.5 -13.5t33.5 -6q20 0 31.5 7t17 15.5t7 16t1.5 9.5h34q0 -5 -3.5 -18.5t-13 -27.5t-27.5 -25.5t-48 -11.5z" />
    <glyph glyph-name="utilde" unicode="&#x169;" horiz-adv-x="587" 
d="M239 -10q-166 0 -166 230v300h50v-293q0 -192 131 -192q33 0 64 11.5t58 32t47.5 49.5t32.5 64v328h50v-450q0 -25 21 -25v-45q-5 -1 -9 -1h-6q-20 0 -35.5 12.5t-15.5 33.5v78q-34 -63 -93.5 -98t-128.5 -35zM349 647q-22 0 -39 6t-31 13.5t-27.5 14t-28.5 6.5
q-17 0 -27 -7t-15 -15.5t-7 -16t-2 -9.5h-34q0 4 3 17.5t12.5 28t26 26t43.5 11.5q20 0 35.5 -6.5t29.5 -14t28.5 -13.5t33.5 -6q20 0 31.5 7t17 15.5t7 16t1.5 9.5h34q0 -5 -3.5 -18.5t-13 -27.5t-27.5 -25.5t-48 -11.5z" />
    <glyph glyph-name="Umacron" unicode="&#x16a;" horiz-adv-x="756" 
d="M378 42q72 0 119.5 27t75 71t39 100t11.5 113v357h51v-357q0 -71 -15.5 -136t-50.5 -114.5t-91 -78.5t-138 -29q-85 0 -142 30.5t-91.5 81t-49 114.5t-14.5 132v357h51v-357q0 -59 11.5 -115t40 -99.5t75.5 -70t118 -26.5zM236 859v37h285v-37h-285z" />
    <glyph glyph-name="umacron" unicode="&#x16b;" horiz-adv-x="587" 
d="M239 -10q-166 0 -166 230v300h50v-293q0 -192 131 -192q33 0 64 11.5t58 32t47.5 49.5t32.5 64v328h50v-450q0 -25 21 -25v-45q-5 -1 -9 -1h-6q-20 0 -35.5 12.5t-15.5 33.5v78q-34 -63 -93.5 -98t-128.5 -35zM145 672v37h285v-37h-285z" />
    <glyph glyph-name="Ubreve" unicode="&#x16c;" horiz-adv-x="756" 
d="M378 42q72 0 119.5 27t75 71t39 100t11.5 113v357h51v-357q0 -71 -15.5 -136t-50.5 -114.5t-91 -78.5t-138 -29q-85 0 -142 30.5t-91.5 81t-49 114.5t-14.5 132v357h51v-357q0 -59 11.5 -115t40 -99.5t75.5 -70t118 -26.5zM379 853q20 0 36.5 18.5t19.5 45.5h33
q0 -19 -7 -36t-19.5 -29.5t-28.5 -19.5t-34 -7t-34.5 7t-28.5 19.5t-19 29.5t-7 36h33q0 -25 17 -44.5t39 -19.5z" />
    <glyph glyph-name="ubreve" unicode="&#x16d;" horiz-adv-x="587" 
d="M239 -10q-166 0 -166 230v300h50v-293q0 -192 131 -192q33 0 64 11.5t58 32t47.5 49.5t32.5 64v328h50v-450q0 -25 21 -25v-45q-5 -1 -9 -1h-6q-20 0 -35.5 12.5t-15.5 33.5v78q-34 -63 -93.5 -98t-128.5 -35zM288 666q20 0 36.5 18.5t19.5 45.5h33q0 -19 -7 -36
t-19.5 -29.5t-28.5 -19.5t-34 -7t-34.5 7t-28.5 19.5t-19 29.5t-7 36h33q0 -25 17 -44.5t39 -19.5z" />
    <glyph glyph-name="Uring" unicode="&#x16e;" horiz-adv-x="756" 
d="M310 855q0 27 19.5 44.5t48.5 17.5t48.5 -17.5t19.5 -44.5q0 -28 -19.5 -45.5t-48.5 -17.5t-48.5 17.5t-19.5 45.5zM378 894q-17 0 -28.5 -10.5t-11.5 -28.5q0 -17 11.5 -28.5t28.5 -11.5q16 0 28.5 11.5t12.5 28.5q0 18 -12 28.5t-29 10.5zM378 42q72 0 119.5 27t75 71
t39 100t11.5 113v357h51v-357q0 -71 -15.5 -136t-50.5 -114.5t-91 -78.5t-138 -29q-85 0 -142 30.5t-91.5 81t-49 114.5t-14.5 132v357h51v-357q0 -59 11.5 -115t40 -99.5t75.5 -70t118 -26.5z" />
    <glyph glyph-name="uring" unicode="&#x16f;" horiz-adv-x="587" 
d="M219 668q0 27 19.5 44.5t48.5 17.5t48.5 -17.5t19.5 -44.5q0 -28 -19.5 -45.5t-48.5 -17.5t-48.5 17.5t-19.5 45.5zM287 707q-17 0 -28.5 -10.5t-11.5 -28.5q0 -17 11.5 -28.5t28.5 -11.5q16 0 28.5 11.5t12.5 28.5q0 18 -12 28.5t-29 10.5zM239 -10q-166 0 -166 230v300
h50v-293q0 -192 131 -192q33 0 64 11.5t58 32t47.5 49.5t32.5 64v328h50v-450q0 -25 21 -25v-45q-5 -1 -9 -1h-6q-20 0 -35.5 12.5t-15.5 33.5v78q-34 -63 -93.5 -98t-128.5 -35z" />
    <glyph glyph-name="Uhungarumlaut" unicode="&#x170;" horiz-adv-x="756" 
d="M378 42q72 0 119.5 27t75 71t39 100t11.5 113v357h51v-357q0 -71 -15.5 -136t-50.5 -114.5t-91 -78.5t-138 -29q-85 0 -142 30.5t-91.5 81t-49 114.5t-14.5 132v357h51v-357q0 -59 11.5 -115t40 -99.5t75.5 -70t118 -26.5zM315 817l-29 16l59 85h53zM431 817l-30 16
l60 85h53z" />
    <glyph glyph-name="uhungarumlaut" unicode="&#x171;" horiz-adv-x="587" 
d="M239 -10q-166 0 -166 230v300h50v-293q0 -192 131 -192q33 0 64 11.5t58 32t47.5 49.5t32.5 64v328h50v-450q0 -25 21 -25v-45q-5 -1 -9 -1h-6q-20 0 -35.5 12.5t-15.5 33.5v78q-34 -63 -93.5 -98t-128.5 -35zM224 629l-29 16l59 85h53zM340 629l-30 16l60 85h53z" />
    <glyph glyph-name="Uogonek" unicode="&#x172;" horiz-adv-x="756" 
d="M378 42q72 0 119.5 27t75 71t39 100t11.5 113v357h51v-357q0 -70 -15 -133.5t-48 -112t-86.5 -78.5t-130.5 -33q-44 -29 -61.5 -49.5t-17.5 -43.5q0 -38 49 -45l-16 -30q-32 7 -49.5 25t-17.5 43t17 49t55 51q-77 5 -129 37t-83.5 81.5t-45 111.5t-13.5 127v357h51v-357
q0 -59 11.5 -115t40 -99.5t75.5 -70t118 -26.5z" />
    <glyph glyph-name="uogonek" unicode="&#x173;" horiz-adv-x="587" 
d="M239 -10q-166 0 -166 230v300h50v-293q0 -192 131 -192q33 0 64 11.5t58 32t47.5 49.5t32.5 64v328h50v-450q0 -25 21 -25v-45q-45 -29 -63.5 -50t-18.5 -44q0 -38 49 -45l-16 -30q-32 7 -49.5 25t-17.5 43q0 26 18.5 51t59.5 53q-12 5 -20 16t-8 26v78
q-34 -63 -93.5 -98t-128.5 -35z" />
    <glyph glyph-name="Wcircumflex" unicode="&#x174;" horiz-adv-x="1043" 
d="M406 836l96 81h37l97 -81l-30 -17l-85 63l-85 -63zM365 705h50l106 -258l106 258h50l-125 -299l149 -346l272 650h56l-304 -710h-47l-156 365l-157 -365h-47l-303 710h55l273 -650l147 346z" />
    <glyph glyph-name="wcircumflex" unicode="&#x175;" horiz-adv-x="806" 
d="M288 649l96 81h37l97 -81l-30 -17l-85 63l-85 -63zM737 520h50l-225 -520h-42l-117 275l-117 -275h-42l-225 520h49l199 -465l109 256l-88 208h43l72 -172l71 172h44l-88 -208l109 -256z" />
    <glyph glyph-name="Ycircumflex" unicode="&#x176;" horiz-adv-x="647" 
d="M75 710l248 -393l249 393h57l-280 -442v-268h-51v270l-279 440h56zM208 836l96 81h37l97 -81l-30 -17l-85 63l-85 -63z" />
    <glyph glyph-name="ycircumflex" unicode="&#x177;" horiz-adv-x="540" 
d="M113 -176q5 -1 15 -1t18.5 1t16.5 5q6 3 11 8.5t14 22.5t23 50l38 90l-232 520h52l207 -471l193 471h49l-285 -684q-11 -28 -35.5 -43.5t-66.5 -15.5h-9q-4 0 -9 1v46zM161 649l96 81h37l97 -81l-30 -17l-85 63l-85 -63z" />
    <glyph glyph-name="Ydieresis" unicode="&#x178;" horiz-adv-x="647" 
d="M75 710l248 -393l249 393h57l-280 -442v-268h-51v270l-279 440h56zM233 828v88h44v-88h-44zM369 828v88h44v-88h-44z" />
    <glyph glyph-name="Zacute" unicode="&#x179;" horiz-adv-x="627" 
d="M330 816l-35 16l61 85h58zM30 42l505 622h-498v46h558v-42l-501 -622h499v-46h-563v42z" />
    <glyph glyph-name="zacute" unicode="&#x17a;" horiz-adv-x="490" 
d="M256 629l-35 16l61 85h58zM32 36l368 445h-362v39h418v-36l-367 -445h365v-39h-422v36z" />
    <glyph glyph-name="Zdotaccent" unicode="&#x17b;" horiz-adv-x="627" 
d="M30 42l505 622h-498v46h558v-42l-501 -622h499v-46h-563v42zM307 827v90h46v-90h-46z" />
    <glyph glyph-name="zdotaccent" unicode="&#x17c;" horiz-adv-x="490" 
d="M32 36l368 445h-362v39h418v-36l-367 -445h365v-39h-422v36zM234 640v90h46v-90h-46z" />
    <glyph glyph-name="Zcaron" unicode="&#x17d;" horiz-adv-x="627" 
d="M246 917l85 -63l85 63l30 -17l-97 -81h-37l-96 81zM30 42l505 622h-498v46h558v-42l-501 -622h499v-46h-563v42z" />
    <glyph glyph-name="zcaron" unicode="&#x17e;" horiz-adv-x="490" 
d="M172 730l85 -63l85 63l30 -17l-97 -81h-37l-96 81zM32 36l368 445h-362v39h418v-36l-367 -445h365v-39h-422v36z" />
    <glyph glyph-name="Schwa" unicode="&#x18f;" horiz-adv-x="738" 
d="M365 -8q-71 0 -132 28t-106 77t-71 114t-26 140q0 5 0.5 13.5t1.5 10.5h605q-5 63 -29 116.5t-61.5 92.5t-86 61t-102.5 22q-38 0 -73.5 -10.5t-66.5 -30t-54 -46t-35 -59.5l-49 23q16 37 45.5 68.5t67 54t81.5 35.5t89 13q68 0 128 -29t105 -78.5t71 -116t26 -142.5
q0 -75 -25.5 -140t-70 -113t-104 -76t-128.5 -28zM365 40q55 0 103.5 22t85 60.5t59 91.5t25.5 115h-552q4 -62 27 -115t60.5 -91.5t86.5 -60.5t105 -22z" />
    <glyph glyph-name="florin" unicode="&#x192;" horiz-adv-x="519" 
d="M139 -177q-32 0 -59.5 8.5t-49.5 28.5l27 33q17 -14 37 -19t40 -5q19 0 37 7.5t32 21t23 32t9 40.5v448h-74v41h74v78q0 96 39 149.5t108 53.5q29 0 57 -9t47 -24l-19 -36q-13 11 -34 18t-43 7q-51 0 -78 -40.5t-27 -117.5v-79h148v-41h-148v-447q0 -33 -12.5 -60
t-33.5 -46.5t-47 -30.5t-53 -11z" />
    <glyph glyph-name="uni01C4" unicode="&#x1c4;" horiz-adv-x="1340" 
d="M959 917l85 -63l85 63l30 -17l-97 -81h-37l-96 81zM743 42l505 622h-498v46h558v-42l-501 -622h499v-46h-563v42zM93 0v710h236q84 0 147.5 -28t105.5 -76t63 -112.5t21 -137.5q0 -81 -23.5 -146.5t-67.5 -112t-106.5 -72t-139.5 -25.5h-236zM615 356q0 67 -19 123.5
t-55.5 97.5t-89.5 64t-122 23h-185v-618h185q70 0 123.5 23.5t89.5 65.5t54.5 98.5t18.5 122.5z" />
    <glyph glyph-name="uni01C5" unicode="&#x1c5;" horiz-adv-x="1203" 
d="M885 730l85 -63l85 63l30 -17l-97 -81h-37l-96 81zM745 36l368 445h-362v39h418v-36l-367 -445h365v-39h-422v36zM93 0v710h236q84 0 147.5 -28t105.5 -76t63 -112.5t21 -137.5q0 -81 -23.5 -146.5t-67.5 -112t-106.5 -72t-139.5 -25.5h-236zM615 356q0 67 -19 123.5
t-55.5 97.5t-89.5 64t-122 23h-185v-618h185q70 0 123.5 23.5t89.5 65.5t54.5 98.5t18.5 122.5z" />
    <glyph glyph-name="uni01C6" unicode="&#x1c6;" horiz-adv-x="1105" 
d="M787 730l85 -63l85 63l30 -17l-97 -81h-37l-96 81zM647 36l368 445h-362v39h418v-36l-367 -445h365v-39h-422v36zM292 -10q-54 0 -100 22.5t-79.5 60t-52 86t-18.5 100.5q0 54 18 103t50 86t75.5 59t95.5 22q34 0 64 -10t56 -26.5t47 -38.5t36 -47v323h50v-660
q0 -25 21 -25v-45q-6 -1 -10 -1.5t-8 -0.5q-20 0 -34 15.5t-14 32.5v58q-32 -52 -85.5 -83t-111.5 -31zM301 35q27 0 58 11t57.5 30.5t45.5 44.5t22 54v171q-11 28 -31.5 53.5t-46.5 44t-56 29.5t-58 11q-45 0 -82 -19.5t-63 -51t-40 -72t-14 -83.5q0 -45 16 -85t44.5 -71
t66 -49t81.5 -18z" />
    <glyph glyph-name="uni01C7" unicode="&#x1c7;" horiz-adv-x="1060" 
d="M613 74q25 -17 60 -27.5t78 -10.5q58 0 92 21t52 61t23.5 98.5t5.5 132.5v361h51v-361q0 -81 -7 -147.5t-30.5 -113.5t-67.5 -73t-119 -26q-90 0 -154 44zM93 0v710h51v-664h424v-46h-475z" />
    <glyph glyph-name="uni01C8" unicode="&#x1c8;" horiz-adv-x="795" 
d="M571 -177q-32 0 -59.5 8.5t-49.5 28.5l27 33q17 -14 37 -19t40 -5q19 0 37 7.5t32 21t23 32t9 40.5v550h50v-548q0 -33 -12.5 -60t-33.5 -47t-47 -31t-53 -11zM667 638v92h50v-92h-50zM93 0v710h51v-664h424v-46h-475z" />
    <glyph glyph-name="uni01C9" unicode="&#x1c9;" horiz-adv-x="473" 
d="M249 -177q-32 0 -59.5 8.5t-49.5 28.5l27 33q17 -14 37 -19t40 -5q19 0 37 7.5t32 21t23 32t9 40.5v550h50v-548q0 -33 -12.5 -60t-33.5 -47t-47 -31t-53 -11zM345 638v92h50v-92h-50zM82 730h51v-627q0 -29 16.5 -46t45.5 -17q11 0 26.5 2.5t28.5 7.5l10 -40
q-17 -7 -42 -11.5t-43 -4.5q-42 0 -67.5 25.5t-25.5 68.5v642z" />
    <glyph glyph-name="uni01CA" unicode="&#x1ca;" horiz-adv-x="1252" 
d="M805 74q25 -17 60 -27.5t78 -10.5q58 0 92 21t52 61t23.5 98.5t5.5 132.5v361h51v-361q0 -81 -7 -147.5t-30.5 -113.5t-67.5 -73t-119 -26q-90 0 -154 44zM144 614v-614h-51v710h39l498 -625v625h51v-710h-47z" />
    <glyph glyph-name="uni01CB" unicode="&#x1cb;" horiz-adv-x="987" 
d="M763 -177q-32 0 -59.5 8.5t-49.5 28.5l27 33q17 -14 37 -19t40 -5q19 0 37 7.5t32 21t23 32t9 40.5v550h50v-548q0 -33 -12.5 -60t-33.5 -47t-47 -31t-53 -11zM859 638v92h50v-92h-50zM144 614v-614h-51v710h39l498 -625v625h51v-710h-47z" />
    <glyph glyph-name="uni01CC" unicode="&#x1cc;" horiz-adv-x="790" 
d="M566 -177q-32 0 -59.5 8.5t-49.5 28.5l27 33q17 -14 37 -19t40 -5q19 0 37 7.5t32 21t23 32t9 40.5v550h50v-548q0 -33 -12.5 -60t-33.5 -47t-47 -31t-53 -11zM662 638v92h50v-92h-50zM503 0h-50v290q0 101 -28.5 147t-90.5 46q-33 0 -65.5 -12t-60.5 -34t-49 -51.5
t-31 -63.5v-322h-50v520h47v-124q16 30 39.5 54.5t53 42t62.5 27t68 9.5q85 0 120 -59.5t35 -170.5v-299z" />
    <glyph glyph-name="Oogonek" unicode="&#x1ea;" horiz-adv-x="753" 
d="M347 -172q-32 7 -49.5 25t-17.5 43t17 49t55 51q-69 5 -126 37.5t-97.5 82t-62.5 111.5t-22 128q0 71 25.5 136t70 115t105.5 79.5t132 29.5q74 0 135.5 -31.5t105 -82.5t67.5 -115.5t24 -130.5q0 -69 -24 -132.5t-66 -112.5t-100 -79.5t-125 -34.5q-45 -29 -62.5 -49.5
t-17.5 -43.5q0 -38 49 -45zM95 355q0 -61 20.5 -117.5t58 -100t89.5 -69.5t114 -26q64 0 115.5 27t88 71.5t56.5 100.5t20 114q0 61 -21 117.5t-58.5 100t-88.5 69.5t-112 26q-64 0 -116 -27t-89 -71.5t-57 -100.5t-20 -114z" />
    <glyph glyph-name="oogonek" unicode="&#x1eb;" horiz-adv-x="592" 
d="M280 -176q-32 7 -49.5 25t-17.5 43t16.5 48.5t52.5 50.5q-52 3 -96 25t-76 58.5t-50 84t-18 100.5q0 55 19.5 104t53.5 86t80.5 58.5t100.5 21.5t100 -21.5t80.5 -58.5t54 -86t19.5 -104q0 -51 -16.5 -96.5t-46.5 -81.5t-71 -59.5t-89 -29.5q-45 -29 -62.5 -49.5
t-17.5 -43.5q0 -38 49 -45zM92 257q0 -46 16 -86.5t43.5 -70.5t64.5 -47.5t79 -17.5t79 17.5t65 48.5t44 71.5t16 87.5q0 46 -16 86.5t-44 71t-64.5 48.5t-78.5 18t-79 -18t-64.5 -49t-44 -72.5t-16.5 -87.5z" />
    <glyph glyph-name="uni01F1" unicode="&#x1f1;" horiz-adv-x="1325" 
d="M727 42l505 622h-498v46h558v-42l-501 -622h499v-46h-563v42zM93 0v710h236q84 0 147.5 -28t105.5 -76t63 -112.5t21 -137.5q0 -81 -23.5 -146.5t-67.5 -112t-106.5 -72t-139.5 -25.5h-236zM615 356q0 67 -19 123.5t-55.5 97.5t-89.5 64t-122 23h-185v-618h185
q70 0 123.5 23.5t89.5 65.5t54.5 98.5t18.5 122.5z" />
    <glyph glyph-name="uni01F2" unicode="&#x1f2;" horiz-adv-x="1203" 
d="M745 36l368 445h-362v39h418v-36l-367 -445h365v-39h-422v36zM93 0v710h236q84 0 147.5 -28t105.5 -76t63 -112.5t21 -137.5q0 -81 -23.5 -146.5t-67.5 -112t-106.5 -72t-139.5 -25.5h-236zM615 356q0 67 -19 123.5t-55.5 97.5t-89.5 64t-122 23h-185v-618h185
q70 0 123.5 23.5t89.5 65.5t54.5 98.5t18.5 122.5z" />
    <glyph glyph-name="uni01F3" unicode="&#x1f3;" horiz-adv-x="1105" 
d="M647 36l368 445h-362v39h418v-36l-367 -445h365v-39h-422v36zM292 -10q-54 0 -100 22.5t-79.5 60t-52 86t-18.5 100.5q0 54 18 103t50 86t75.5 59t95.5 22q34 0 64 -10t56 -26.5t47 -38.5t36 -47v323h50v-660q0 -25 21 -25v-45q-6 -1 -10 -1.5t-8 -0.5q-20 0 -34 15.5
t-14 32.5v58q-32 -52 -85.5 -83t-111.5 -31zM301 35q27 0 58 11t57.5 30.5t45.5 44.5t22 54v171q-11 28 -31.5 53.5t-46.5 44t-56 29.5t-58 11q-45 0 -82 -19.5t-63 -51t-40 -72t-14 -83.5q0 -45 16 -85t44.5 -71t66 -49t81.5 -18z" />
    <glyph glyph-name="Gacute" unicode="&#x1f4;" horiz-adv-x="717" 
d="M371 816l-35 16l61 85h58zM616 111q-103 -116 -239 -116q-72 0 -133.5 31t-105.5 82t-69 116t-25 132q0 70 24.5 135t68 115t103.5 79.5t131 29.5q53 0 95.5 -11.5t76 -32t58 -49t41.5 -62.5l-42 -25q-36 70 -95.5 101.5t-134.5 31.5q-63 0 -114 -27t-87 -71t-55 -100
t-19 -115q0 -63 22 -119.5t60.5 -99.5t90.5 -68.5t112 -25.5q65 0 123.5 30t112.5 95v137h-161v41h205v-345h-44v111z" />
    <glyph glyph-name="gacute" unicode="&#x1f5;" 
d="M300 629l-35 16l61 85h58zM288 -8q-54 0 -99 22.5t-77.5 60t-51 85.5t-18.5 99q0 53 17.5 102t49.5 86.5t76.5 59.5t98.5 22q68 0 118.5 -35.5t85.5 -86.5v113h46v-530q0 -53 -20 -93t-53.5 -66.5t-78 -40t-93.5 -13.5q-45 0 -81 8.5t-63.5 24t-49 38t-37.5 49.5l34 23
q31 -53 84 -77.5t113 -24.5q40 0 75.5 11t62 32.5t42 53.5t15.5 75v114q-32 -51 -85 -81.5t-111 -30.5zM300 35q33 0 64.5 12.5t57 32.5t42 45t20.5 50v171q-12 30 -32 55.5t-45.5 43.5t-55 28.5t-59.5 10.5q-47 0 -84 -20t-62.5 -52t-39 -72.5t-13.5 -81.5q0 -45 16 -85
t44 -71t66 -49t81 -18z" />
    <glyph glyph-name="Aringacute" unicode="&#x1fa;" horiz-adv-x="675" 
d="M269 750q0 27 19.5 44.5t48.5 17.5t48.5 -17.5t19.5 -44.5q0 -20 -10.5 -35t-27.5 -22l293 -693h-54l-99 234h-339l-99 -234h-55l294 692q-18 7 -28.5 22.5t-10.5 35.5zM493 276l-155 372l-158 -372h313zM337 789q-17 0 -28.5 -10.5t-11.5 -28.5q0 -17 11.5 -28.5
t28.5 -11.5q16 0 28.5 11.5t12.5 28.5q0 18 -12 28.5t-29 10.5zM340 819l-35 16l61 83h58z" />
    <glyph glyph-name="aringacute" unicode="&#x1fb;" horiz-adv-x="537" 
d="M206 -10q-36 0 -67 12.5t-54.5 34t-36.5 51t-13 63.5t16 62t44.5 48.5t68.5 32t88 11.5q42 0 84.5 -7.5t76.5 -20.5v51q0 74 -42 117.5t-114 43.5q-38 0 -80.5 -16t-86.5 -46l-19 34q100 68 190 68q94 0 148 -54.5t54 -150.5v-254q0 -25 22 -25v-45q-5 -1 -10.5 -1.5
t-9.5 -0.5q-20 0 -32 13.5t-14 32.5v43q-36 -47 -92 -72t-121 -25zM216 30q58 0 106.5 22t74.5 58q16 21 16 40v92q-36 14 -75 21t-81 7q-39 0 -71 -8.5t-55 -23.5t-35.5 -36.5t-12.5 -47.5t10 -49t28 -39.5t42.5 -26t52.5 -9.5zM260 773l-35 16l61 85h58zM192 668
q0 27 19.5 44.5t48.5 17.5t48.5 -17.5t19.5 -44.5q0 -28 -19.5 -45.5t-48.5 -17.5t-48.5 17.5t-19.5 45.5zM260 707q-17 0 -28.5 -10.5t-11.5 -28.5q0 -17 11.5 -28.5t28.5 -11.5q16 0 28.5 11.5t12.5 28.5q0 18 -12 28.5t-29 10.5z" />
    <glyph glyph-name="AEacute" unicode="&#x1fc;" horiz-adv-x="962" 
d="M493 816l-35 16l61 85h58zM434 710h474v-46h-410v-278h356v-47h-356v-293h419v-46h-469v234h-267l-151 -234h-57zM445 280v366l-240 -366h240z" />
    <glyph glyph-name="aeacute" unicode="&#x1fd;" horiz-adv-x="930" 
d="M439 629l-35 16l61 85h58zM206 -10q-36 0 -67 12.5t-54.5 34t-36.5 51t-13 63.5t16 62t44.5 48.5t68 32t87.5 11.5q35 0 71 -5.5t67 -14.5q2 21 6.5 42.5t12.5 41.5q-11 56 -50.5 88t-100.5 32q-38 0 -80.5 -16t-86.5 -46l-20 34q101 68 191 68q66 0 111.5 -29t67.5 -82
q32 50 85 80.5t117 30.5q55 0 102 -21t81.5 -58t54 -86t19.5 -104q0 -3 -0.5 -10.5t-0.5 -9.5h-461q3 -45 21 -83.5t46.5 -66.5t65.5 -44t78 -16q27 0 53.5 7.5t49 20.5t40 31.5t27.5 40.5l44 -12q-12 -28 -33.5 -51.5t-50 -40.5t-62.5 -26.5t-70 -9.5q-67 0 -122 32t-90 85
q-16 -31 -42 -53t-57 -36.5t-64.5 -21t-64.5 -6.5zM216 30q58 0 107 21.5t74 58.5q15 19 16 35q-11 23 -17 51t-7 54q-63 20 -132 20q-78 0 -126 -32t-48 -84q0 -26 10 -49t28 -39.5t42.5 -26t52.5 -9.5zM850 277q-3 46 -20 85t-45 67t-64.5 43.5t-78.5 15.5t-78.5 -16
t-64 -44t-44 -66.5t-18.5 -84.5h413z" />
    <glyph glyph-name="Oslashacute" unicode="&#x1fe;" horiz-adv-x="753" 
d="M639 710l-52 -78q58 -53 90 -126.5t32 -150.5q0 -72 -25.5 -137t-70 -114.5t-105.5 -79t-132 -29.5q-49 0 -93 14t-80 39l-31 -48h-57l50 77q-57 52 -89 125t-32 153q0 71 25.5 136t70 115t105.5 79.5t132 29.5q49 0 92 -14t80 -39l32 48h58zM95 355q0 -69 25.5 -130.5
t71.5 -106.5l331 504q-32 22 -68.5 34t-77.5 12q-64 0 -116 -27t-89 -71.5t-57 -100.5t-20 -114zM657 355q0 68 -26 129.5t-71 106.5l-331 -504q32 -21 69 -33t79 -12q64 0 115.5 27t88 71.5t56.5 100.5t20 114zM376 816l-35 16l61 85h58z" />
    <glyph glyph-name="oslashacute" unicode="&#x1ff;" horiz-adv-x="592" 
d="M104 -1l34 48q-45 38 -70.5 93t-25.5 119q0 55 19.5 104t53.5 86t80.5 58.5t100.5 21.5q36 0 69 -10.5t62 -28.5l22 31h40l-36 -50q45 -38 71 -93t26 -119q0 -54 -19.5 -103t-53.5 -86t-80.5 -58.5t-100.5 -21.5q-38 0 -70.5 10t-61.5 28l-22 -29h-38zM92 257
q0 -53 20 -97t54 -75l235 366q-23 16 -49.5 24.5t-55.5 8.5q-42 0 -79 -18t-64.5 -49t-44 -72.5t-16.5 -87.5zM295 35q42 0 79 17.5t65 48.5t44 71.5t16 87.5q0 51 -20 95.5t-54 75.5l-236 -364q47 -32 106 -32zM295 629l-35 16l61 85h58z" />
    <glyph glyph-name="Adblgrave" unicode="&#x200;" horiz-adv-x="675" 
d="M316 710h44l300 -710h-54l-99 234h-339l-99 -234h-55zM493 276l-155 372l-158 -372h313zM304 918h52l60 -85l-29 -16zM188 918h53l59 -85l-29 -16z" />
    <glyph glyph-name="adblgrave" unicode="&#x201;" horiz-adv-x="537" 
d="M206 -10q-36 0 -67 12.5t-54.5 34t-36.5 51t-13 63.5t16 62t44.5 48.5t68.5 32t88 11.5q42 0 84.5 -7.5t76.5 -20.5v51q0 74 -42 117.5t-114 43.5q-38 0 -80.5 -16t-86.5 -46l-19 34q100 68 190 68q94 0 148 -54.5t54 -150.5v-254q0 -25 22 -25v-45q-5 -1 -10.5 -1.5
t-9.5 -0.5q-20 0 -32 13.5t-14 32.5v43q-36 -47 -92 -72t-121 -25zM216 30q58 0 106.5 22t74.5 58q16 21 16 40v92q-36 14 -75 21t-81 7q-39 0 -71 -8.5t-55 -23.5t-35.5 -36.5t-12.5 -47.5t10 -49t28 -39.5t42.5 -26t52.5 -9.5zM240 730h52l60 -85l-29 -16zM124 730h53
l59 -85l-29 -16z" />
    <glyph glyph-name="Ainvertedbreve" unicode="&#x202;" horiz-adv-x="675" 
d="M316 710h44l300 -710h-54l-99 234h-339l-99 -234h-55zM493 276l-155 372l-158 -372h313zM338 889q-22 0 -39 -19.5t-17 -44.5h-33q0 19 7 36t19 29.5t28.5 19.5t34.5 7t34 -7t28.5 -19.5t19.5 -29.5t7 -36h-33q-3 27 -19.5 45.5t-36.5 18.5z" />
    <glyph glyph-name="ainvertedbreve" unicode="&#x203;" horiz-adv-x="537" 
d="M206 -10q-36 0 -67 12.5t-54.5 34t-36.5 51t-13 63.5t16 62t44.5 48.5t68.5 32t88 11.5q42 0 84.5 -7.5t76.5 -20.5v51q0 74 -42 117.5t-114 43.5q-38 0 -80.5 -16t-86.5 -46l-19 34q100 68 190 68q94 0 148 -54.5t54 -150.5v-254q0 -25 22 -25v-45q-5 -1 -10.5 -1.5
t-9.5 -0.5q-20 0 -32 13.5t-14 32.5v43q-36 -47 -92 -72t-121 -25zM216 30q58 0 106.5 22t74.5 58q16 21 16 40v92q-36 14 -75 21t-81 7q-39 0 -71 -8.5t-55 -23.5t-35.5 -36.5t-12.5 -47.5t10 -49t28 -39.5t42.5 -26t52.5 -9.5zM263 702q-22 0 -39 -19.5t-17 -44.5h-33
q0 19 7 36t19 29.5t28.5 19.5t34.5 7t34 -7t28.5 -19.5t19.5 -29.5t7 -36h-33q-3 27 -19.5 45.5t-36.5 18.5z" />
    <glyph glyph-name="Edblgrave" unicode="&#x204;" 
d="M305 918h52l60 -85l-29 -16zM189 918h53l59 -85l-29 -16zM566 46v-46h-473v710h464v-46h-413v-279h361v-44h-361v-295h422z" />
    <glyph glyph-name="edblgrave" unicode="&#x205;" horiz-adv-x="583" 
d="M268 730h52l60 -85l-29 -16zM152 730h53l59 -85l-29 -16zM299 -10q-55 0 -102 21.5t-81.5 59t-54 86.5t-19.5 105q0 55 19.5 103.5t53.5 85t80.5 57.5t100.5 21q55 0 102 -21.5t81 -58t53 -85t19 -102.5v-12q0 -8 -1 -10h-456q3 -45 21 -83.5t45.5 -66.5t63.5 -44t77 -16
q27 0 53 7.5t48.5 20.5t40 31.5t27.5 40.5l44 -12q-11 -28 -32.5 -51.5t-50 -40.5t-62.5 -26.5t-70 -9.5zM503 280q-3 46 -20.5 84t-45 65.5t-63.5 43t-77 15.5t-77 -15.5t-63.5 -43t-44 -66t-19.5 -83.5h410z" />
    <glyph glyph-name="Einvertedbreve" unicode="&#x206;" 
d="M331 889q-22 0 -39 -19.5t-17 -44.5h-33q0 19 7 36t19 29.5t28.5 19.5t34.5 7t34 -7t28.5 -19.5t19.5 -29.5t7 -36h-33q-3 27 -19.5 45.5t-36.5 18.5zM566 46v-46h-473v710h464v-46h-413v-279h361v-44h-361v-295h422z" />
    <glyph glyph-name="einvertedbreve" unicode="&#x207;" horiz-adv-x="583" 
d="M296 702q-22 0 -39 -19.5t-17 -44.5h-33q0 19 7 36t19 29.5t28.5 19.5t34.5 7t34 -7t28.5 -19.5t19.5 -29.5t7 -36h-33q-3 27 -19.5 45.5t-36.5 18.5zM299 -10q-55 0 -102 21.5t-81.5 59t-54 86.5t-19.5 105q0 55 19.5 103.5t53.5 85t80.5 57.5t100.5 21q55 0 102 -21.5
t81 -58t53 -85t19 -102.5v-12q0 -8 -1 -10h-456q3 -45 21 -83.5t45.5 -66.5t63.5 -44t77 -16q27 0 53 7.5t48.5 20.5t40 31.5t27.5 40.5l44 -12q-11 -28 -32.5 -51.5t-50 -40.5t-62.5 -26.5t-70 -9.5zM503 280q-3 46 -20.5 84t-45 65.5t-63.5 43t-77 15.5t-77 -15.5
t-63.5 -43t-44 -66t-19.5 -83.5h410z" />
    <glyph glyph-name="Idblgrave" unicode="&#x208;" horiz-adv-x="237" 
d="M93 0v710h51v-710h-51zM95 918h52l60 -85l-29 -16zM-21 918h53l59 -85l-29 -16z" />
    <glyph glyph-name="idblgrave" unicode="&#x209;" horiz-adv-x="207" 
d="M81 730h52l60 -85l-29 -16zM-35 730h53l59 -85l-29 -16zM78 0v520h50v-520h-50z" />
    <glyph glyph-name="Iinvertedbreve" unicode="&#x20a;" horiz-adv-x="237" 
d="M93 0v710h51v-710h-51zM117 889q-22 0 -39 -19.5t-17 -44.5h-33q0 19 7 36t19 29.5t28.5 19.5t34.5 7t34 -7t28.5 -19.5t19.5 -29.5t7 -36h-33q-3 27 -19.5 45.5t-36.5 18.5z" />
    <glyph glyph-name="iinvertedbreve" unicode="&#x20b;" horiz-adv-x="207" 
d="M104 702q-22 0 -39 -19.5t-17 -44.5h-33q0 19 7 36t19 29.5t28.5 19.5t34.5 7t34 -7t28.5 -19.5t19.5 -29.5t7 -36h-33q-3 27 -19.5 45.5t-36.5 18.5zM78 0v520h50v-520h-50z" />
    <glyph glyph-name="Odblgrave" unicode="&#x20c;" horiz-adv-x="753" 
d="M348 918h52l60 -85l-29 -16zM232 918h53l59 -85l-29 -16zM376 -5q-74 0 -135 31t-105 81t-68 115t-24 133q0 71 25.5 136t70 115t105.5 79.5t132 29.5q74 0 135.5 -31.5t105 -82.5t67.5 -115.5t24 -130.5q0 -72 -25.5 -137t-70 -114.5t-105.5 -79t-132 -29.5zM95 355
q0 -61 20.5 -117.5t58 -100t89.5 -69.5t114 -26q64 0 115.5 27t88 71.5t56.5 100.5t20 114q0 61 -21 117.5t-58.5 100t-88.5 69.5t-112 26q-64 0 -116 -27t-89 -71.5t-57 -100.5t-20 -114z" />
    <glyph glyph-name="odblgrave" unicode="&#x20d;" horiz-adv-x="592" 
d="M270 730h52l60 -85l-29 -16zM154 730h53l59 -85l-29 -16zM296 -10q-55 0 -101.5 21.5t-80.5 58.5t-53 86t-19 103q0 55 19.5 104t53.5 86t80.5 58.5t100.5 21.5t100 -21.5t80.5 -58.5t54 -86t19.5 -104q0 -54 -19.5 -103t-53.5 -86t-80.5 -58.5t-100.5 -21.5zM92 257
q0 -46 16 -86.5t43.5 -70.5t64.5 -47.5t79 -17.5t79 17.5t65 48.5t44 71.5t16 87.5q0 46 -16 86.5t-44 71t-64.5 48.5t-78.5 18t-79 -18t-64.5 -49t-44 -72.5t-16.5 -87.5z" />
    <glyph glyph-name="Oinvertedbreve" unicode="&#x20e;" horiz-adv-x="753" 
d="M376 889q-22 0 -39 -19.5t-17 -44.5h-33q0 19 7 36t19 29.5t28.5 19.5t34.5 7t34 -7t28.5 -19.5t19.5 -29.5t7 -36h-33q-3 27 -19.5 45.5t-36.5 18.5zM376 -5q-74 0 -135 31t-105 81t-68 115t-24 133q0 71 25.5 136t70 115t105.5 79.5t132 29.5q74 0 135.5 -31.5
t105 -82.5t67.5 -115.5t24 -130.5q0 -72 -25.5 -137t-70 -114.5t-105.5 -79t-132 -29.5zM95 355q0 -61 20.5 -117.5t58 -100t89.5 -69.5t114 -26q64 0 115.5 27t88 71.5t56.5 100.5t20 114q0 61 -21 117.5t-58.5 100t-88.5 69.5t-112 26q-64 0 -116 -27t-89 -71.5
t-57 -100.5t-20 -114z" />
    <glyph glyph-name="oinvertedbreve" unicode="&#x20f;" horiz-adv-x="592" 
d="M294 702q-22 0 -39 -19.5t-17 -44.5h-33q0 19 7 36t19 29.5t28.5 19.5t34.5 7t34 -7t28.5 -19.5t19.5 -29.5t7 -36h-33q-3 27 -19.5 45.5t-36.5 18.5zM296 -10q-55 0 -101.5 21.5t-80.5 58.5t-53 86t-19 103q0 55 19.5 104t53.5 86t80.5 58.5t100.5 21.5t100 -21.5
t80.5 -58.5t54 -86t19.5 -104q0 -54 -19.5 -103t-53.5 -86t-80.5 -58.5t-100.5 -21.5zM92 257q0 -46 16 -86.5t43.5 -70.5t64.5 -47.5t79 -17.5t79 17.5t65 48.5t44 71.5t16 87.5q0 46 -16 86.5t-44 71t-64.5 48.5t-78.5 18t-79 -18t-64.5 -49t-44 -72.5t-16.5 -87.5z" />
    <glyph glyph-name="Rdblgrave" unicode="&#x210;" horiz-adv-x="649" 
d="M296 918h52l60 -85l-29 -16zM180 918h53l59 -85l-29 -16zM93 0v710h295q45 0 83 -19t65.5 -50.5t43 -71t15.5 -79.5q0 -39 -12 -75.5t-34 -65.5t-53 -48t-68 -25l177 -276h-59l-172 268h-230v-268h-51zM144 315h249q34 0 62 15t48 39.5t30.5 56t10.5 64.5
q0 34 -12.5 65.5t-34 55.5t-50 38.5t-61.5 14.5h-242v-349z" />
    <glyph glyph-name="rdblgrave" unicode="&#x211;" horiz-adv-x="341" 
d="M173 730h52l60 -85l-29 -16zM57 730h53l59 -85l-29 -16zM324 475q-70 -2 -122.5 -41.5t-73.5 -108.5v-325h-50v520h48v-128q27 55 71.5 89.5t95.5 39.5q10 1 18 1h13v-47z" />
    <glyph glyph-name="Rinvertedbreve" unicode="&#x212;" horiz-adv-x="649" 
d="M322 889q-22 0 -39 -19.5t-17 -44.5h-33q0 19 7 36t19 29.5t28.5 19.5t34.5 7t34 -7t28.5 -19.5t19.5 -29.5t7 -36h-33q-3 27 -19.5 45.5t-36.5 18.5zM93 0v710h295q45 0 83 -19t65.5 -50.5t43 -71t15.5 -79.5q0 -39 -12 -75.5t-34 -65.5t-53 -48t-68 -25l177 -276h-59
l-172 268h-230v-268h-51zM144 315h249q34 0 62 15t48 39.5t30.5 56t10.5 64.5q0 34 -12.5 65.5t-34 55.5t-50 38.5t-61.5 14.5h-242v-349z" />
    <glyph glyph-name="rinvertedbreve" unicode="&#x213;" horiz-adv-x="341" 
d="M196 702q-22 0 -39 -19.5t-17 -44.5h-33q0 19 7 36t19 29.5t28.5 19.5t34.5 7t34 -7t28.5 -19.5t19.5 -29.5t7 -36h-33q-3 27 -19.5 45.5t-36.5 18.5zM324 475q-70 -2 -122.5 -41.5t-73.5 -108.5v-325h-50v520h48v-128q27 55 71.5 89.5t95.5 39.5q10 1 18 1h13v-47z" />
    <glyph glyph-name="Udblgrave" unicode="&#x214;" horiz-adv-x="756" 
d="M355 918h52l60 -85l-29 -16zM239 918h53l59 -85l-29 -16zM378 42q72 0 119.5 27t75 71t39 100t11.5 113v357h51v-357q0 -71 -15.5 -136t-50.5 -114.5t-91 -78.5t-138 -29q-85 0 -142 30.5t-91.5 81t-49 114.5t-14.5 132v357h51v-357q0 -59 11.5 -115t40 -99.5t75.5 -70
t118 -26.5z" />
    <glyph glyph-name="udblgrave" unicode="&#x215;" horiz-adv-x="587" 
d="M260 730h52l60 -85l-29 -16zM144 730h53l59 -85l-29 -16zM239 -10q-166 0 -166 230v300h50v-293q0 -192 131 -192q33 0 64 11.5t58 32t47.5 49.5t32.5 64v328h50v-450q0 -25 21 -25v-45q-5 -1 -9 -1h-6q-20 0 -35.5 12.5t-15.5 33.5v78q-34 -63 -93.5 -98t-128.5 -35z
" />
    <glyph glyph-name="Uinvertedbreve" unicode="&#x216;" horiz-adv-x="756" 
d="M378 889q-22 0 -39 -19.5t-17 -44.5h-33q0 19 7 36t19 29.5t28.5 19.5t34.5 7t34 -7t28.5 -19.5t19.5 -29.5t7 -36h-33q-3 27 -19.5 45.5t-36.5 18.5zM378 42q72 0 119.5 27t75 71t39 100t11.5 113v357h51v-357q0 -71 -15.5 -136t-50.5 -114.5t-91 -78.5t-138 -29
q-85 0 -142 30.5t-91.5 81t-49 114.5t-14.5 132v357h51v-357q0 -59 11.5 -115t40 -99.5t75.5 -70t118 -26.5z" />
    <glyph glyph-name="uinvertedbreve" unicode="&#x217;" horiz-adv-x="587" 
d="M286 702q-22 0 -39 -19.5t-17 -44.5h-33q0 19 7 36t19 29.5t28.5 19.5t34.5 7t34 -7t28.5 -19.5t19.5 -29.5t7 -36h-33q-3 27 -19.5 45.5t-36.5 18.5zM239 -10q-166 0 -166 230v300h50v-293q0 -192 131 -192q33 0 64 11.5t58 32t47.5 49.5t32.5 64v328h50v-450
q0 -25 21 -25v-45q-5 -1 -9 -1h-6q-20 0 -35.5 12.5t-15.5 33.5v78q-34 -63 -93.5 -98t-128.5 -35z" />
    <glyph glyph-name="uni0218" unicode="&#x218;" horiz-adv-x="605" 
d="M292 -187l15 68h-16v70h49v-70l-21 -68h-27zM506 592q-69 77 -195 77q-104 0 -151.5 -39.5t-47.5 -106.5q0 -34 12 -56.5t37.5 -38.5t64.5 -27t94 -23q57 -12 103.5 -26.5t79 -36.5t50 -54t17.5 -79t-18.5 -82t-52 -58.5t-80 -35.5t-103.5 -12q-166 0 -281 106l27 41
q45 -47 110 -74.5t146 -27.5q93 0 145.5 34t52.5 103q0 35 -14 59.5t-41.5 42.5t-69.5 31t-98 25q-57 12 -100.5 25.5t-73 34t-44.5 49.5t-15 73q0 48 18.5 85t51.5 62.5t79 38.5t102 13q69 0 123 -20.5t98 -62.5z" />
    <glyph glyph-name="uni0219" unicode="&#x219;" horiz-adv-x="481" 
d="M217 -187l15 68h-16v70h49v-70l-21 -68h-27zM243 -10q-60 0 -115 20t-96 60l25 34q42 -38 87 -56t99 -18q68 0 109.5 28.5t41.5 79.5q0 24 -10.5 40.5t-31.5 28t-52 20.5t-72 19q-44 10 -76.5 20t-53.5 24t-31.5 34t-10.5 51q0 39 15 68t41.5 48t61 28.5t73.5 9.5
q61 0 108 -20.5t73 -52.5l-28 -27q-26 30 -67.5 45t-88.5 15q-29 0 -54.5 -6t-44.5 -19t-30 -33.5t-11 -48.5q0 -23 7.5 -37t24 -24t42.5 -17.5t62 -16.5q49 -12 87 -23t63.5 -27t39 -38t13.5 -56q0 -70 -54.5 -111.5t-145.5 -41.5z" />
    <glyph glyph-name="uni021A" unicode="&#x21a;" horiz-adv-x="606" 
d="M278 -187l15 68h-16v70h49v-70l-21 -68h-27zM589 664h-260v-664h-51v664h-260v46h571v-46z" />
    <glyph glyph-name="uni021B" unicode="&#x21b;" horiz-adv-x="320" 
d="M174 -187l15 68h-16v70h49v-70l-21 -68h-27zM310 25q-4 -2 -13.5 -7.5t-24 -10.5t-32.5 -9t-39 -4t-39.5 6t-32.5 18t-22 29t-8 40v392h-73v41h73v178h50v-178h121v-41h-121v-380q0 -29 20 -43.5t45 -14.5q31 0 53.5 10.5t27.5 13.5z" />
    <glyph glyph-name="dotlessj" unicode="&#x237;" horiz-adv-x="207" 
d="M-18 -177q-32 0 -59.5 8.5t-48.5 28.5l27 33q16 -14 36.5 -19t40.5 -5q18 0 36 7.5t32.5 21t23 32t8.5 40.5v550h50v-548q0 -33 -12.5 -60t-33 -47t-47 -31t-53.5 -11z" />
    <glyph glyph-name="schwa" unicode="&#x259;" horiz-adv-x="583" 
d="M288 -10q-55 0 -101.5 21t-81 58t-54.5 85.5t-20 104.5q0 2 0.5 9.5t0.5 9.5h457q-3 45 -21 83.5t-45.5 66.5t-64 44t-76.5 16q-27 0 -53.5 -7.5t-49 -20.5t-40 -31t-27.5 -40l-44 12q12 27 33.5 50.5t50 41t62.5 27t70 9.5q55 0 102 -21.5t81.5 -59t54 -87t19.5 -105.5
q0 -55 -19 -103.5t-53 -84.5t-80.5 -57t-100.5 -21zM288 30q41 0 77 16t63 44t43 67t19 84h-409q3 -46 20 -85t45 -67t64.5 -43.5t77.5 -15.5z" />
    <glyph glyph-name="apostrophe" unicode="&#x2bc;" horiz-adv-x="546" 
d="M257 629l-34 16l39 54v31h80z" />
    <glyph glyph-name="circumflex" unicode="&#x2c6;" horiz-adv-x="320" 
d="M45 649l96 81h37l97 -81l-30 -17l-85 63l-85 -63z" />
    <glyph glyph-name="caron" unicode="&#x2c7;" horiz-adv-x="320" 
d="M75 730l85 -63l85 63l30 -17l-97 -81h-37l-96 81z" />
    <glyph glyph-name="uni02C9" unicode="&#x2c9;" horiz-adv-x="390" 
d="M53 672v37h285v-37h-285z" />
    <glyph glyph-name="breve" unicode="&#x2d8;" horiz-adv-x="269" 
d="M135 666q20 0 36.5 18.5t19.5 45.5h33q0 -19 -7 -36t-19.5 -29.5t-28.5 -19.5t-34 -7t-34.5 7t-28.5 19.5t-19 29.5t-7 36h33q0 -25 17 -44.5t39 -19.5z" />
    <glyph glyph-name="dotaccent" unicode="&#x2d9;" horiz-adv-x="146" 
d="M50 640v90h46v-90h-46z" />
    <glyph glyph-name="ring" unicode="&#x2da;" horiz-adv-x="244" 
d="M54 668q0 27 19.5 44.5t48.5 17.5t48.5 -17.5t19.5 -44.5q0 -28 -19.5 -45.5t-48.5 -17.5t-48.5 17.5t-19.5 45.5zM122 707q-17 0 -28.5 -10.5t-11.5 -28.5q0 -17 11.5 -28.5t28.5 -11.5q16 0 28.5 11.5t12.5 28.5q0 18 -12 28.5t-29 10.5z" />
    <glyph glyph-name="ogonek" unicode="&#x2db;" horiz-adv-x="226" 
d="M119 -169q-32 7 -49.5 25t-17.5 43q0 29 23 56.5t74 60.5l19 -16q-45 -29 -63.5 -50t-18.5 -44q0 -38 49 -45z" />
    <glyph glyph-name="tilde" unicode="&#x2dc;" horiz-adv-x="397" 
d="M258 647q-22 0 -39 6t-31 13.5t-27.5 14t-28.5 6.5q-17 0 -27 -7t-15 -15.5t-7 -16t-2 -9.5h-34q0 4 3 17.5t12.5 28t26 26t43.5 11.5q20 0 35.5 -6.5t29.5 -14t28.5 -13.5t33.5 -6q20 0 31.5 7t17 15.5t7 16t1.5 9.5h34q0 -5 -3.5 -18.5t-13 -27.5t-27.5 -25.5
t-48 -11.5z" />
    <glyph glyph-name="hungarumlaut" unicode="&#x2dd;" horiz-adv-x="316" 
d="M75 629l-29 16l59 85h53zM191 629l-30 16l60 85h53z" />
    <glyph glyph-name="uni030F" unicode="&#x30f;" horiz-adv-x="316" 
d="M158 730h52l60 -85l-29 -16zM42 730h53l59 -85l-29 -16z" />
    <glyph glyph-name="uni0311" unicode="&#x311;" horiz-adv-x="269" 
d="M135 702q-22 0 -39 -19.5t-17 -44.5h-33q0 19 7 36t19 29.5t28.5 19.5t34.5 7t34 -7t28.5 -19.5t19.5 -29.5t7 -36h-33q-3 27 -19.5 45.5t-36.5 18.5z" />
    <glyph glyph-name="uni0394" unicode="&#x394;" horiz-adv-x="647" 
d="M623 41v-41h-600v41l280 669h42zM567 46l-243 602l-244 -602h487z" />
    <glyph glyph-name="uni03A9" unicode="&#x3a9;" horiz-adv-x="766" 
d="M47 47h201q-91 45 -142.5 130t-51.5 188q0 69 25 132.5t69 111.5t104 77t131 29t131 -29t104 -77t69 -111.5t25 -132.5q0 -51 -13.5 -99t-38.5 -89t-61.5 -74.5t-81.5 -55.5h202v-47h-289v47q55 13 98 45.5t72 76.5t44.5 95t15.5 101q0 56 -19 110.5t-55 97t-87.5 68.5
t-115.5 26t-115.5 -26t-87.5 -68.5t-55 -97t-19 -110.5q0 -50 15.5 -101t44.5 -95t72 -76.5t98 -45.5v-47h-289v47z" />
    <glyph glyph-name="uni03BC" unicode="&#x3bc;" horiz-adv-x="593" 
d="M79 520h50v-293q0 -192 132 -192q33 0 64 11.5t58 32t47.5 49.5t32.5 64v328h50v-450q0 -25 21 -25v-45q-5 -1 -8 -1h-7q-22 0 -36.5 13.5t-14.5 35.5v75q-15 -29 -37 -53.5t-49.5 -42t-58.5 -27.5t-64 -10q-51 0 -83.5 24.5t-48.5 67.5v-294h-48v732z" />
    <glyph glyph-name="pi" unicode="&#x3c0;" horiz-adv-x="571" 
d="M154 474v-474h-49v474h-80v46h505v-46h-110v-371q0 -29 17 -46t46 -17q11 0 26 2.5t28 7.5l10 -40q-17 -7 -42 -11.5t-43 -4.5q-42 0 -66.5 25.5t-24.5 68.5v386h-217z" />
    <glyph glyph-name="uni0400" unicode="&#x400;" 
d="M567 46v-46h-473v710h464v-46h-413v-279h361v-44h-361v-295h422zM256 918h57l62 -85l-34 -16z" />
    <glyph glyph-name="uni0401" unicode="&#x401;" 
d="M250 828v88h44v-88h-44zM386 828v88h44v-88h-44zM567 46v-46h-473v710h464v-46h-413v-279h361v-44h-361v-295h422z" />
    <glyph glyph-name="uni0402" unicode="&#x402;" horiz-adv-x="692" 
d="M205 664h-189v46h517v-46h-277v-287q69 66 182 66q108 0 166.5 -58t58.5 -170q0 -110 -55 -167.5t-161 -57.5q-29 0 -54 5t-52 17l16 46q28 -14 47.5 -18.5t42.5 -4.5q80 0 121 46t41 134q0 89 -44.5 135t-132.5 46q-51 0 -94.5 -17.5t-81.5 -55.5v-323h-51v664z" />
    <glyph glyph-name="uni0403" unicode="&#x403;" horiz-adv-x="524" 
d="M294 816l-35 16l61 85h58zM503 664h-358v-664h-51v710h409v-46z" />
    <glyph glyph-name="uni0404" unicode="&#x404;" horiz-adv-x="699" 
d="M666 159q-18 -40 -48 -71t-68 -52t-81.5 -31.5t-88.5 -10.5q-75 0 -137 32t-106.5 83.5t-68.5 117t-24 133.5q0 64 22.5 127.5t65.5 113.5t106.5 81.5t146.5 31.5q100 0 166.5 -43.5t99.5 -111.5l-42 -24q-19 37 -45 62t-56 40.5t-62.5 22.5t-64.5 7q-66 0 -117 -24
t-87 -64t-56 -90.5t-24 -103.5h371v-44h-372q3 -60 25.5 -114.5t60.5 -95.5t90 -65.5t112 -24.5q33 0 67 8t66 25t59.5 43.5t45.5 62.5z" />
    <glyph glyph-name="uni0405" unicode="&#x405;" horiz-adv-x="605" 
d="M506 592q-69 77 -195 77q-104 0 -151.5 -39.5t-47.5 -106.5q0 -34 12 -56.5t37.5 -38.5t64.5 -27t94 -23q57 -12 103.5 -26.5t79 -36.5t50 -54t17.5 -79t-18.5 -82t-52 -58.5t-80 -35.5t-103.5 -12q-166 0 -281 106l27 41q45 -47 110 -74.5t146 -27.5q93 0 145.5 34
t52.5 103q0 35 -14 59.5t-41.5 42.5t-69.5 31t-98 25q-57 12 -100.5 25.5t-73 34t-44.5 49.5t-15 73q0 48 18.5 85t51.5 62.5t79 38.5t102 13q69 0 123 -20.5t98 -62.5z" />
    <glyph glyph-name="uni0406" unicode="&#x406;" horiz-adv-x="238" 
d="M94 0v710h51v-710h-51z" />
    <glyph glyph-name="uni0407" unicode="&#x407;" horiz-adv-x="238" 
d="M94 0v710h51v-710h-51zM29 828v88h44v-88h-44zM165 828v88h44v-88h-44z" />
    <glyph glyph-name="uni0408" unicode="&#x408;" horiz-adv-x="479" 
d="M32 74q25 -17 60 -27.5t78 -10.5q58 0 92 21t52 61t23.5 98.5t5.5 132.5v361h51v-361q0 -81 -7 -147.5t-30.5 -113.5t-67.5 -73t-119 -26q-90 0 -154 44z" />
    <glyph glyph-name="uni0409" unicode="&#x409;" horiz-adv-x="994" 
d="M6 46q29 1 55.5 19t50 70.5t42.5 149t32 253.5l14 172h349v-309h201q103 0 159 -53t56 -145q0 -45 -14.5 -82t-42.5 -64t-67.5 -42t-88.5 -15h-254v664h-251l-11 -133q-12 -144 -30.5 -245.5t-45 -165.5t-63 -93.5t-84.5 -29.5zM752 46q42 0 73 12.5t50.5 34t29 50
t9.5 60.5q0 31 -8.5 59t-28 49t-50.5 33t-77 12h-201v-310h203z" />
    <glyph glyph-name="uni040A" unicode="&#x40a;" horiz-adv-x="1039" 
d="M94 710h51v-309h386v309h51v-309h213q102 0 158.5 -53t56.5 -145q0 -45 -14.5 -82t-42.5 -64t-67.5 -42t-88.5 -15h-266v355h-386v-355h-51v710zM797 46q42 0 72.5 12.5t50 34t29 50t9.5 60.5q0 31 -8.5 59t-27.5 49t-50.5 33t-76.5 12h-213v-310h215z" />
    <glyph glyph-name="uni040B" unicode="&#x40b;" horiz-adv-x="699" 
d="M609 206q0 98 -38.5 141t-125.5 43q-53 0 -103 -15t-86 -41v-334h-51v664h-189v46h517v-46h-277v-280q39 25 87.5 38.5t100.5 13.5q107 0 160.5 -52.5t53.5 -167.5v-216h-49v206z" />
    <glyph glyph-name="uni040C" unicode="&#x40c;" horiz-adv-x="588" 
d="M315 816l-35 16l61 85h58zM145 390h124l230 320h60l-246 -341l275 -369h-60l-256 343h-127v-343h-51v710h51v-320z" />
    <glyph glyph-name="uni040D" unicode="&#x40d;" horiz-adv-x="737" 
d="M293 918h57l62 -85l-34 -16zM145 76l466 634h43v-710h-51v624l-460 -624h-49v710h51v-634z" />
    <glyph glyph-name="uni040E" unicode="&#x40e;" horiz-adv-x="620" 
d="M164 -8q-20 0 -39 4t-35 14v47q15 -10 33.5 -14.5t36.5 -4.5q19 0 35 6t31 21t30 40t33 62l-267 543h55l237 -486l232 486h55l-264 -546q-24 -50 -44.5 -83t-40.5 -52.5t-41.5 -28t-46.5 -8.5zM315 821q-69 0 -105.5 26.5t-36.5 68.5h34q0 -25 30 -44.5t78 -19.5
q46 0 76 18t32 46h33q0 -42 -36.5 -68.5t-104.5 -26.5z" />
    <glyph glyph-name="uni040F" unicode="&#x40f;" horiz-adv-x="691" 
d="M94 710h51v-664h401v664h51v-710h-226v-186h-51v186h-226v710z" />
    <glyph glyph-name="uni0410" unicode="&#x410;" horiz-adv-x="675" 
d="M316 710h44l300 -710h-54l-99 234h-339l-99 -234h-55zM493 276l-155 372l-158 -372h313z" />
    <glyph glyph-name="uni0411" unicode="&#x411;" horiz-adv-x="649" 
d="M94 710h471v-46h-420v-263h253q102 0 158.5 -53t56.5 -145q0 -45 -14.5 -82t-42.5 -64t-67.5 -42t-89.5 -15h-305v710zM399 46q42 0 73 12.5t50.5 34t29 50t9.5 60.5q0 31 -8.5 59t-27.5 49t-50.5 33t-76.5 12h-253v-310h254z" />
    <glyph glyph-name="uni0412" unicode="&#x412;" horiz-adv-x="663" 
d="M608 184q0 -39 -15 -72.5t-41 -58.5t-61 -39t-74 -14h-332v710h331q37 0 67 -16t51 -41.5t32.5 -58t11.5 -65.5q0 -54 -27 -99t-75 -66q61 -18 96.5 -67.5t35.5 -112.5zM557 191q0 28 -10 54.5t-28 47t-42.5 32.5t-52.5 12h-288v-291h281q30 0 55.5 12t44 32.5t29.5 46.5
t11 54zM136 664v-284h260q29 0 53 12t41.5 31.5t27.5 45.5t10 53q0 29 -9.5 54.5t-26 45t-39.5 31t-51 11.5h-266z" />
    <glyph glyph-name="uni0413" unicode="&#x413;" horiz-adv-x="524" 
d="M503 664h-358v-664h-51v710h409v-46z" />
    <glyph glyph-name="uni0414" unicode="&#x414;" horiz-adv-x="696" 
d="M17 46h21q19 3 35.5 11.5t31 27.5t27 52.5t24 87t21.5 130.5t19 183l15 172h369v-664h93v-231h-46v185h-564v-185h-46v231zM529 46v618h-271l-11 -133q-9 -110 -20 -193.5t-25.5 -142.5t-33.5 -95.5t-44 -53.5h405z" />
    <glyph glyph-name="uni0415" unicode="&#x415;" 
d="M567 46v-46h-473v710h464v-46h-413v-279h361v-44h-361v-295h422z" />
    <glyph glyph-name="uni0416" unicode="&#x416;" horiz-adv-x="921" 
d="M244 369l-211 341h60l194 -320h146v320h55v-320h146l194 320h60l-212 -341l240 -369h-60l-217 343h-151v-343h-55v343h-151l-218 -343h-60z" />
    <glyph glyph-name="uni0417" unicode="&#x417;" horiz-adv-x="527" 
d="M56 627q27 38 77.5 63t116.5 25q95 0 147.5 -43t52.5 -122q0 -62 -31 -103.5t-94 -56.5q75 -12 115.5 -63t40.5 -124q0 -46 -17 -84.5t-48 -66t-73.5 -42.5t-94.5 -15q-74 0 -132.5 31.5t-87.5 83.5l41 32q24 -45 73 -72.5t110 -27.5q40 0 72.5 11t56 32t36.5 50.5
t13 65.5q0 78 -56.5 122.5t-159.5 44.5h-43v46h43q90 0 138 35t48 99q0 60 -40.5 90.5t-108.5 30.5q-54 0 -96.5 -21t-63.5 -53z" />
    <glyph glyph-name="uni0418" unicode="&#x418;" horiz-adv-x="748" 
d="M145 76l466 634h43v-710h-51v624l-460 -624h-49v710h51v-634z" />
    <glyph glyph-name="uni0419" unicode="&#x419;" horiz-adv-x="748" 
d="M518 916q-1 -42 -37 -68.5t-105 -26.5t-105 26.5t-37 68.5h34q0 -25 30.5 -44.5t77.5 -19.5q46 0 76.5 18t32.5 46h33zM145 76l466 634h43v-710h-51v624l-460 -624h-49v710h51v-634z" />
    <glyph glyph-name="uni041A" unicode="&#x41a;" horiz-adv-x="588" 
d="M145 390h124l230 320h60l-246 -341l275 -369h-60l-256 343h-127v-343h-51v710h51v-320z" />
    <glyph glyph-name="uni041B" unicode="&#x41b;" horiz-adv-x="643" 
d="M236 531q-12 -144 -30.5 -245.5t-45 -165.5t-63 -93.5t-84.5 -29.5l-7 49q29 1 55.5 19t50 70.5t42.5 149t32 253.5l14 172h349v-710h-51v664h-251z" />
    <glyph glyph-name="uni041C" unicode="&#x41c;" horiz-adv-x="881" 
d="M737 0v614l-280 -479h-32l-280 479v-614h-51v710h51l296 -508l296 508h51v-710h-51z" />
    <glyph glyph-name="uni041D" unicode="&#x41d;" horiz-adv-x="737" 
d="M644 710v-710h-51v340h-448v-340h-51v710h51v-324h448v324h51z" />
    <glyph glyph-name="uni041E" unicode="&#x41e;" horiz-adv-x="753" 
d="M376 -5q-74 0 -135 31t-105 81t-68 115t-24 133q0 71 25.5 136t70 115t105.5 79.5t132 29.5q74 0 135.5 -31.5t105 -82.5t67.5 -115.5t24 -130.5q0 -72 -25.5 -137t-70 -114.5t-105.5 -79t-132 -29.5zM95 355q0 -61 20.5 -117.5t58 -100t89.5 -69.5t114 -26
q64 0 115.5 27t88 71.5t56.5 100.5t20 114q0 61 -21 117.5t-58.5 100t-88.5 69.5t-112 26q-64 0 -116 -27t-89 -71.5t-57 -100.5t-20 -114z" />
    <glyph glyph-name="uni041F" unicode="&#x41f;" horiz-adv-x="720" 
d="M94 710h532v-710h-51v664h-430v-664h-51v710z" />
    <glyph glyph-name="uni0420" unicode="&#x420;" horiz-adv-x="622" 
d="M94 0v710h292q45 0 83 -19t65.5 -50.5t43 -71t15.5 -79.5q0 -43 -14.5 -83t-41 -71t-63.5 -49.5t-82 -18.5h-247v-268h-51zM145 315h245q35 0 63 14.5t47.5 39t30 56t10.5 65.5q0 35 -12.5 66.5t-34 55.5t-50 38t-60.5 14h-239v-349z" />
    <glyph glyph-name="uni0421" unicode="&#x421;" horiz-adv-x="690" 
d="M44 360q0 64 22.5 127.5t65.5 113.5t105.5 81.5t142.5 31.5q95 0 162 -43.5t100 -111.5l-42 -24q-19 37 -44.5 62t-55 40.5t-61.5 22.5t-63 7q-68 0 -120 -27.5t-88 -71.5t-54.5 -99.5t-18.5 -111.5q0 -63 22 -120t60 -100.5t90 -69.5t112 -26q32 0 66 8t65 25t58 43.5
t45 62.5l44 -21q-18 -40 -49 -71t-69 -52t-80.5 -31.5t-83.5 -10.5q-73 0 -133.5 32t-104.5 83.5t-68.5 117t-24.5 133.5z" />
    <glyph glyph-name="uni0422" unicode="&#x422;" horiz-adv-x="605" 
d="M588 664h-260v-664h-51v664h-260v46h571v-46z" />
    <glyph glyph-name="uni0423" unicode="&#x423;" horiz-adv-x="620" 
d="M164 -8q-20 0 -39 4t-35 14v47q15 -10 33.5 -14.5t37.5 -4.5t34.5 6t30.5 21t30 39.5t33 62.5l-267 543h55l237 -486l232 486h55l-264 -546q-24 -50 -44.5 -83t-40.5 -52.5t-41.5 -28t-46.5 -8.5z" />
    <glyph glyph-name="uni0424" unicode="&#x424;" horiz-adv-x="737" 
d="M344 73q-70 3 -127 25t-98 61t-63.5 93.5t-22.5 122.5q0 66 21.5 120.5t62 94.5t98 63t129.5 27v102h51v-102q70 -3 127 -26.5t97.5 -63t62 -94.5t21.5 -121q0 -68 -22 -122.5t-62.5 -93t-97.5 -61t-126 -25.5v-107h-51v107zM395 120q58 3 105.5 22t81 52t51.5 79t18 104
q0 115 -68.5 181.5t-187.5 72.5v-511zM344 631q-60 -3 -108 -21.5t-81.5 -51.5t-51.5 -78.5t-18 -102.5q0 -58 18.5 -104t52.5 -79t81.5 -52t106.5 -22v511z" />
    <glyph glyph-name="uni0425" unicode="&#x425;" horiz-adv-x="628" 
d="M66 710l249 -323l248 323h58l-279 -360l271 -350h-58l-240 313l-241 -313h-59l271 350l-279 360h59z" />
    <glyph glyph-name="uni0426" unicode="&#x426;" horiz-adv-x="714" 
d="M644 0h-550v710h51v-664h401v664h51v-664h94v-231h-47v185z" />
    <glyph glyph-name="uni0427" unicode="&#x427;" horiz-adv-x="608" 
d="M463 710h51v-710h-51v317q-42 -19 -87 -28t-103 -9q-122 0 -174.5 63t-52.5 181v186h51v-178q0 -55 9.5 -94t31 -63.5t55.5 -36t83 -11.5q58 0 108.5 12t78.5 31v340z" />
    <glyph glyph-name="uni0428" unicode="&#x428;" horiz-adv-x="919" 
d="M825 710v-710h-731v710h51v-664h289v664h51v-664h290v664h50z" />
    <glyph glyph-name="uni0429" unicode="&#x429;" horiz-adv-x="942" 
d="M873 0h-779v710h51v-664h290v664h50v-664h290v664h51v-664h93v-231h-46v185z" />
    <glyph glyph-name="uni042A" unicode="&#x42a;" horiz-adv-x="724" 
d="M16 710h268v-279h182q108 0 168 -57.5t60 -157.5q0 -48 -16 -87.5t-45.5 -68t-71.5 -44.5t-94 -16h-234v664h-217v46zM284 46h183q46 0 79 13.5t54.5 36.5t31.5 54t10 66t-9.5 66t-30.5 54t-54.5 36.5t-81.5 13.5h-182v-340z" />
    <glyph glyph-name="uni042B" unicode="&#x42b;" horiz-adv-x="811" 
d="M94 710h51v-279h181q109 0 168.5 -57.5t59.5 -157.5q0 -48 -16 -87.5t-45 -68t-71 -44.5t-94 -16h-234v710zM145 46h183q46 0 79 13.5t54.5 36.5t31.5 54t10 66t-9.5 66t-30.5 54t-55 36.5t-82 13.5h-181v-340zM666 0v709h51v-709h-51z" />
    <glyph glyph-name="uni042C" unicode="&#x42c;" horiz-adv-x="584" 
d="M94 710h51v-279h181q109 0 168.5 -57.5t59.5 -157.5q0 -48 -16 -87.5t-45 -68t-71 -44.5t-94 -16h-234v710zM145 46h183q46 0 79 13.5t54.5 36.5t31.5 54t10 66t-9.5 66t-30.5 54t-55 36.5t-82 13.5h-181v-340z" />
    <glyph glyph-name="uni042D" unicode="&#x42d;" horiz-adv-x="699" 
d="M319 -6q-45 0 -88.5 10.5t-81.5 31.5t-68 52t-48 71l43 21q19 -36 46.5 -62.5t59.5 -43.5t66 -25t67 -8q60 0 111.5 24.5t89.5 65.5t60.5 95.5t25.5 114.5h-371v44h370q-4 53 -24 103.5t-56 90.5t-86.5 64t-116.5 24q-32 0 -64.5 -7t-62.5 -22.5t-56 -40.5t-45 -62
l-42 24q33 68 99.5 111.5t166.5 43.5q82 0 145.5 -31.5t107 -81.5t65.5 -113.5t22 -127.5q0 -68 -24 -133.5t-68 -117t-106 -83.5t-137 -32z" />
    <glyph glyph-name="uni042E" unicode="&#x42e;" horiz-adv-x="971" 
d="M603 -5q-68 0 -124 25t-97 69.5t-65 106.5t-27 137h-145v-333h-51v710h51v-330h146q4 77 29 139t67 105.5t97.5 67t119.5 23.5q72 0 131 -27t101 -75t65.5 -114t23.5 -144q0 -83 -24.5 -149.5t-68 -113.5t-102.5 -72t-127 -25zM342 355q0 -72 19.5 -130t54 -98.5
t82.5 -62.5t105 -22q61 0 111.5 23t85.5 64.5t54.5 99t19.5 126.5q0 72 -20.5 130t-56.5 98.5t-86 62.5t-108 22q-59 0 -107.5 -23t-82.5 -64t-52.5 -99t-18.5 -127z" />
    <glyph glyph-name="uni042F" unicode="&#x42f;" horiz-adv-x="628" 
d="M483 0v294h-213l-177 -294h-61l186 304q-67 21 -106 75.5t-39 125.5q0 40 16 77t45 65.5t70.5 45.5t92.5 17h237v-710h-51zM483 664h-184q-38 0 -70 -12t-55 -33.5t-36 -50.5t-13 -63q0 -33 11 -63t32 -52.5t52 -36t72 -13.5h191v324z" />
    <glyph glyph-name="uni0430" unicode="&#x430;" horiz-adv-x="538" 
d="M206 -10q-36 0 -67 12.5t-54.5 34t-36.5 51t-13 63.5t16 62t44.5 48.5t68.5 32t88 11.5q42 0 84.5 -7.5t76.5 -20.5v51q0 74 -42 117.5t-114 43.5q-38 0 -80.5 -16t-86.5 -46l-19 34q100 68 190 68q94 0 148 -54.5t54 -150.5v-254q0 -25 22 -25v-45q-5 -1 -10.5 -1.5
t-9.5 -0.5q-20 0 -32 13.5t-14 32.5v43q-36 -47 -92 -72t-121 -25zM216 30q58 0 106.5 22t74.5 58q16 21 16 40v92q-36 14 -75 21t-81 7q-39 0 -71 -8.5t-55 -23.5t-35.5 -36.5t-12.5 -47.5t10 -49t28 -39.5t42.5 -26t52.5 -9.5z" />
    <glyph glyph-name="uni0431" unicode="&#x431;" horiz-adv-x="572" 
d="M335 662q-97 -22 -154.5 -89.5t-69.5 -192.5q28 53 75 83t115 30q52 0 93.5 -18t70.5 -51t45 -79.5t16 -103.5q0 -55 -16.5 -101t-47 -79.5t-75 -52t-101.5 -18.5q-56 0 -98 20.5t-71 58.5t-43.5 92.5t-14.5 122.5q0 100 19.5 173.5t55.5 124.5t86.5 81.5t113.5 44.5
l147 33l10 -43zM111 243q0 -45 12 -83t35.5 -66.5t57 -44.5t76.5 -16t77 16t58 44t36.5 66t12.5 82q0 97 -48.5 151t-136.5 54q-39 0 -72 -13.5t-57 -39.5t-37.5 -64t-13.5 -86z" />
    <glyph glyph-name="uni0432" unicode="&#x432;" horiz-adv-x="519" 
d="M329 520q28 0 51 -10.5t39.5 -28t25.5 -41t9 -48.5q0 -37 -18.5 -71.5t-55.5 -51.5q44 -12 69.5 -46.5t25.5 -82.5q0 -30 -11 -55.5t-30.5 -44.5t-46.5 -29.5t-58 -10.5h-249v520h249zM309 283q21 0 39 8t30.5 22t19.5 32.5t7 39.5q0 39 -23.5 67.5t-66.5 28.5h-186v-198
h180zM325 39q22 0 41 8.5t32.5 23t21 33.5t7.5 39t-7 38t-20 32t-31.5 22.5t-40.5 8.5h-199v-205h196z" />
    <glyph glyph-name="uni0433" unicode="&#x433;" horiz-adv-x="406" 
d="M384 481h-256v-481h-49v520h305v-39z" />
    <glyph glyph-name="uni0434" unicode="&#x434;" horiz-adv-x="564" 
d="M18 44h31q21 4 37 22.5t29.5 57.5t25 102t22.5 157l16 137h288v-476h65v-203h-45v159h-426v-159h-43v203zM418 44v435h-192l-15 -118q-18 -139 -40 -216t-51 -101h298z" />
    <glyph glyph-name="uni0435" unicode="&#x435;" horiz-adv-x="583" 
d="M299 -10q-55 0 -102 21.5t-81.5 59t-54 86.5t-19.5 105q0 55 19.5 103.5t53.5 85t80.5 57.5t100.5 21q55 0 102 -21.5t81 -58t53 -85t19 -102.5v-12q0 -8 -1 -10h-456q3 -45 21 -83.5t45.5 -66.5t63.5 -44t77 -16q27 0 53 7.5t48.5 20.5t40 31.5t27.5 40.5l44 -12
q-11 -28 -32.5 -51.5t-50 -40.5t-62.5 -26.5t-70 -9.5zM503 280q-3 46 -20.5 84t-45 65.5t-63.5 43t-77 15.5t-77 -15.5t-63.5 -43t-44 -66t-19.5 -83.5h410z" />
    <glyph glyph-name="uni0436" unicode="&#x436;" horiz-adv-x="745" 
d="M91 521l142 -237h115v236h50v-236h115l141 237h57l-156 -251l176 -270h-57l-154 245h-122v-245h-50v245h-122l-155 -245h-57l176 270l-156 251h57z" />
    <glyph glyph-name="uni0437" unicode="&#x437;" horiz-adv-x="409" 
d="M49 465q27 32 65 48t81 16q68 0 106.5 -33.5t38.5 -88.5q0 -47 -24 -78t-66 -39q54 -8 86 -47t32 -94q0 -35 -13 -64t-36 -50t-56.5 -33t-73.5 -12q-55 0 -93 20t-64 55l29 36q24 -33 54.5 -49.5t75.5 -16.5q63 0 95.5 32.5t32.5 83.5q0 56 -38 86.5t-107 30.5h-35v40h35
q57 0 88 24.5t31 70.5q0 39 -26.5 61.5t-74.5 22.5q-33 0 -61.5 -12t-54.5 -39z" />
    <glyph glyph-name="uni0438" unicode="&#x438;" horiz-adv-x="584" 
d="M128 70l335 450h42v-520h-50v442l-329 -442h-47v520h49v-450z" />
    <glyph glyph-name="uni0439" unicode="&#x439;" horiz-adv-x="584" 
d="M423 703q-2 -38 -33.5 -60.5t-93.5 -22.5q-63 0 -94.5 22.5t-33.5 60.5h33q1 -27 23.5 -41t71.5 -14q48 0 69 13t25 42h33zM128 70l335 450h42v-520h-50v442l-329 -442h-47v520h49v-450z" />
    <glyph glyph-name="uni043A" unicode="&#x43a;" horiz-adv-x="469" 
d="M383 520h58l-191 -250l210 -270h-57l-188 247h-87v-247h-49v520h49v-233h83z" />
    <glyph glyph-name="uni043B" unicode="&#x43b;" horiz-adv-x="526" 
d="M8 43q25 1 45.5 15.5t37 52.5t29.5 103.5t24 168.5l14 137h289v-520h-50v479h-192l-14 -118q-13 -106 -28.5 -175.5t-36.5 -110.5t-48 -58.5t-63 -18.5z" />
    <glyph glyph-name="uni043C" unicode="&#x43c;" horiz-adv-x="678" 
d="M339 151l212 369h48v-520h-49v429l-195 -340h-31l-196 340v-429h-49v520h49z" />
    <glyph glyph-name="uni043D" unicode="&#x43d;" horiz-adv-x="574" 
d="M128 288h318v232h49v-520h-49v245h-318v-245h-49v520h49v-232z" />
    <glyph glyph-name="uni043E" unicode="&#x43e;" horiz-adv-x="592" 
d="M296 -10q-55 0 -101.5 21.5t-80.5 58.5t-53 86t-19 103q0 55 19.5 104t53.5 86t80.5 58.5t100.5 21.5t100 -21.5t80.5 -58.5t54 -86t19.5 -104q0 -54 -19.5 -103t-53.5 -86t-80.5 -58.5t-100.5 -21.5zM92 257q0 -46 16 -86.5t43.5 -70.5t64.5 -47.5t79 -17.5t79 17.5
t65 48.5t44 71.5t16 87.5q0 46 -16 86.5t-44 71t-64.5 48.5t-78.5 18t-79 -18t-64.5 -49t-44 -72.5t-16.5 -87.5z" />
    <glyph glyph-name="uni043F" unicode="&#x43f;" horiz-adv-x="559" 
d="M479 0h-49v476h-302v-476h-49v520h400v-520z" />
    <glyph glyph-name="uni0440" unicode="&#x440;" horiz-adv-x="613" 
d="M333 -10q-67 0 -119.5 35.5t-84.5 86.5v-325h-50v733h46v-104q32 50 84.5 81.5t112.5 31.5q54 0 100 -23t79 -60.5t51.5 -86.5t18.5 -100q0 -54 -17 -103t-48.5 -86t-75.5 -58.5t-97 -21.5zM321 35q45 0 82 19t63 50.5t40 72t14 82.5q0 45 -16 85.5t-44.5 71.5
t-66.5 49.5t-81 18.5q-27 0 -57.5 -11.5t-57.5 -31t-46 -44.5t-22 -53v-171q13 -29 33 -54t45 -44t54 -29.5t60 -10.5z" />
    <glyph glyph-name="uni0441" unicode="&#x441;" horiz-adv-x="545" 
d="M42 262q0 55 19 104t53 85t81 57t103 21q71 0 125 -32t81 -89l-49 -16q-23 43 -65.5 67.5t-93.5 24.5q-43 0 -80 -17t-64.5 -47t-43.5 -70.5t-16 -87.5t16.5 -88.5t44 -72t65 -48.5t79.5 -18q27 0 53.5 8t49 21t39 30.5t22.5 36.5l49 -14q-10 -27 -30.5 -50.5
t-48.5 -40.5t-62 -26.5t-70 -9.5q-55 0 -102 21.5t-81.5 59t-54 86.5t-19.5 105z" />
    <glyph glyph-name="uni0442" unicode="&#x442;" horiz-adv-x="470" 
d="M260 0h-49v476h-190v44h428v-44h-189v-476z" />
    <glyph glyph-name="uni0443" unicode="&#x443;" horiz-adv-x="540" 
d="M79 -156q24 -21 56 -21q14 0 26 7.5t25 27.5t28 54t35 88l-232 520h52l207 -471l193 471h49l-257 -619q-14 -35 -28 -58t-28.5 -37.5t-31 -20.5t-35.5 -6q-40 0 -64 21z" />
    <glyph glyph-name="uni0444" unicode="&#x444;" horiz-adv-x="678" 
d="M364 527q63 -4 113 -25t85.5 -56.5t54.5 -83.5t19 -105q0 -59 -19.5 -106t-55.5 -81.5t-86 -54.5t-111 -24v-204h-50v204q-61 3 -111 23t-86 54.5t-55.5 82t-19.5 106.5q0 57 19 105t54.5 83.5t85.5 56.5t113 25v203h50v-203zM314 478q-51 -3 -91.5 -19t-69.5 -44
t-44.5 -67.5t-15.5 -87.5q0 -50 16 -89.5t45 -68t69.5 -45t90.5 -19.5v440zM364 38q50 3 90.5 19.5t69.5 45t45 68t16 89.5q0 97 -59.5 154.5t-161.5 63.5v-440z" />
    <glyph glyph-name="uni0445" unicode="&#x445;" horiz-adv-x="496" 
d="M72 520l168 -215l8 -14l8 14l167 215h56l-202 -261l201 -259h-55l-167 214l-8 13l-8 -13l-167 -214h-55l201 259l-202 261h55z" />
    <glyph glyph-name="uni0446" unicode="&#x446;" horiz-adv-x="561" 
d="M79 520h49v-476h282v476h49v-476h80v-203h-44v159h-416v520z" />
    <glyph glyph-name="uni0447" unicode="&#x447;" horiz-adv-x="477" 
d="M398 0h-50v225q-29 -12 -60 -18t-76 -6q-46 0 -78 12.5t-52 36.5t-29 57.5t-9 75.5v137h49v-129q0 -79 31 -112.5t94 -33.5q43 0 77 9t53 22v244h50v-520z" />
    <glyph glyph-name="uni0448" unicode="&#x448;" horiz-adv-x="749" 
d="M79 0v520h49v-476h221v476h50v-476h222v476h49v-520h-591z" />
    <glyph glyph-name="uni0449" unicode="&#x449;" horiz-adv-x="772" 
d="M79 520h49v-476h221v476h50v-476h222v476h49v-476h80v-203h-45v159h-626v520z" />
    <glyph glyph-name="uni044A" unicode="&#x44a;" horiz-adv-x="568" 
d="M240 330h125q77 0 124.5 -43t47.5 -121q0 -38 -12.5 -68.5t-35.5 -52.5t-54.5 -33.5t-68.5 -11.5h-175v476h-171v44h220v-190zM366 43q62 0 91.5 35.5t29.5 87.5t-29.5 86.5t-92.5 34.5h-125v-244h126z" />
    <glyph glyph-name="uni044B" unicode="&#x44b;" horiz-adv-x="630" 
d="M79 520h49v-190h126q76 0 123.5 -43t47.5 -121q0 -38 -12.5 -68.5t-35.5 -52.5t-54.5 -33.5t-68.5 -11.5h-175v520zM502 520h49v-520h-49v520zM254 43q62 0 91.5 35.5t29.5 87.5t-29 86.5t-92 34.5h-126v-244h126z" />
    <glyph glyph-name="uni044C" unicode="&#x44c;" horiz-adv-x="456" 
d="M79 520h49v-190h126q76 0 123.5 -43t47.5 -121q0 -38 -12.5 -68.5t-35.5 -52.5t-54.5 -33.5t-68.5 -11.5h-175v520zM254 43q62 0 91.5 35.5t29.5 87.5t-29 86.5t-92 34.5h-126v-244h126z" />
    <glyph glyph-name="uni044D" unicode="&#x44d;" horiz-adv-x="540" 
d="M245 -9q-34 0 -66.5 8t-61 24t-50.5 39t-35 53l39 18q13 -26 32.5 -45t43 -31.5t49 -18.5t49.5 -6q41 0 77 16.5t64 45.5t45 67.5t19 83.5h-274v41h273q-4 39 -19.5 75.5t-41.5 64.5t-62 45t-81 17q-46 0 -92 -21.5t-75 -73.5l-36 19q26 51 76 84t125 33q60 0 107.5 -23
t80.5 -60.5t50.5 -85.5t17.5 -98q0 -51 -18 -99.5t-51 -87t-80 -61.5t-105 -23z" />
    <glyph glyph-name="uni044E" unicode="&#x44e;" horiz-adv-x="743" 
d="M227 283q3 56 22 101.5t50 78t72 50t89 17.5q54 0 98 -20.5t75.5 -57t49 -86t17.5 -107.5q0 -62 -18.5 -111.5t-50.5 -84.5t-76.5 -54t-95.5 -19q-50 0 -91.5 18t-72 51t-48.5 78.5t-21 101.5h-98v-239h-49v520h49v-237h99zM275 259q0 -52 13.5 -93.5t38 -70.5
t58.5 -44.5t75 -15.5q43 0 78.5 16.5t60 46t38 70.5t13.5 91q0 52 -14 93.5t-39.5 71t-60.5 45t-76 15.5q-42 0 -76.5 -16.5t-58.5 -46t-37 -71t-13 -91.5z" />
    <glyph glyph-name="uni044F" unicode="&#x44f;" horiz-adv-x="492" 
d="M185 211q-51 11 -84 49.5t-33 103.5q0 33 12 61.5t34.5 49.5t53 33t68.5 12h177v-520h-49v205h-127l-146 -205h-58zM364 249v227h-126q-26 0 -47.5 -8t-38 -23t-25.5 -35.5t-9 -45.5q0 -49 28.5 -82t79.5 -33h138z" />
    <glyph glyph-name="uni0450" unicode="&#x450;" horiz-adv-x="583" 
d="M299 -10q-55 0 -102 21.5t-81.5 59t-54 86.5t-19.5 105q0 55 19.5 103.5t53.5 85t80.5 57.5t100.5 21q55 0 102 -21.5t81 -58t53 -85t19 -102.5v-12q0 -8 -1 -10h-456q3 -45 21 -83.5t45.5 -66.5t63.5 -44t77 -16q27 0 53 7.5t48.5 20.5t40 31.5t27.5 40.5l44 -12
q-11 -28 -32.5 -51.5t-50 -40.5t-62.5 -26.5t-70 -9.5zM503 280q-3 46 -20.5 84t-45 65.5t-63.5 43t-77 15.5t-77 -15.5t-63.5 -43t-44 -66t-19.5 -83.5h410zM211 730h57l62 -85l-34 -16z" />
    <glyph glyph-name="uni0451" unicode="&#x451;" horiz-adv-x="583" 
d="M205 640v88h44v-88h-44zM341 640v88h44v-88h-44zM299 -10q-55 0 -102 21.5t-81.5 59t-54 86.5t-19.5 105q0 55 19.5 103.5t53.5 85t80.5 57.5t100.5 21q55 0 102 -21.5t81 -58t53 -85t19 -102.5v-12q0 -8 -1 -10h-456q3 -45 21 -83.5t45.5 -66.5t63.5 -44t77 -16
q27 0 53 7.5t48.5 20.5t40 31.5t27.5 40.5l44 -12q-11 -28 -32.5 -51.5t-50 -40.5t-62.5 -26.5t-70 -9.5zM503 280q-3 46 -20.5 84t-45 65.5t-63.5 43t-77 15.5t-77 -15.5t-63.5 -43t-44 -66t-19.5 -83.5h410z" />
    <glyph glyph-name="uni0452" unicode="&#x452;" horiz-adv-x="578" 
d="M504 -28q0 -32 -12.5 -59.5t-32.5 -47.5t-47 -31t-55 -11q-32 0 -59.5 8.5t-47.5 28.5l27 33q15 -14 35 -19t40 -5q19 0 37.5 8t33 21.5t23 32t8.5 39.5v289q0 96 -31.5 144t-101.5 48q-35 0 -66 -14.5t-56 -39.5t-43 -59t-27 -74v-264h-50v596h-73v40h73v94h50v-94h237
v-40h-237v-254q26 72 80.5 113.5t124.5 41.5q89 0 129.5 -58t40.5 -171v-296z" />
    <glyph glyph-name="uni0453" unicode="&#x453;" horiz-adv-x="407" 
d="M224 629l-35 16l61 85h58zM384 481h-256v-481h-49v520h305v-39z" />
    <glyph glyph-name="uni0454" unicode="&#x454;" horiz-adv-x="541" 
d="M296 -9q-58 0 -105 23t-80 61.5t-51 87t-18 99.5q0 50 17 98t50 85.5t80.5 60.5t108.5 23q75 0 124.5 -33t75.5 -84l-36 -19q-29 52 -75 73.5t-91 21.5t-81.5 -17t-62.5 -45t-41.5 -64.5t-19.5 -75.5h273v-41h-274q3 -45 19.5 -84t44.5 -67.5t64 -45t78 -16.5q24 0 49 6
t48.5 18.5t43 31.5t32.5 45l40 -18q-13 -30 -35.5 -53t-51 -39t-61 -24t-65.5 -8z" />
    <glyph glyph-name="uni0455" unicode="&#x455;" horiz-adv-x="481" 
d="M242 -10q-60 0 -115 20t-96 60l25 34q42 -38 87 -56t99 -18q68 0 109.5 28.5t41.5 79.5q0 24 -10.5 40.5t-31.5 28t-52 20.5t-72 19q-44 10 -76.5 20t-53.5 24t-31.5 34t-10.5 51q0 39 15 68t41.5 48t61 28.5t73.5 9.5q61 0 108 -20.5t73 -52.5l-28 -27q-26 30 -67.5 45
t-88.5 15q-29 0 -54.5 -6t-44.5 -19t-30 -33.5t-11 -48.5q0 -23 7.5 -37t24 -24t42.5 -17.5t62 -16.5q49 -12 87 -23t63.5 -27t39 -38t13.5 -56q0 -70 -54.5 -111.5t-145.5 -41.5z" />
    <glyph glyph-name="uni0456" unicode="&#x456;" horiz-adv-x="208" 
d="M79 0v520h50v-520h-50zM79 638v92h50v-92h-50z" />
    <glyph glyph-name="uni0457" unicode="&#x457;" horiz-adv-x="208" 
d="M14 640v88h44v-88h-44zM150 640v88h44v-88h-44zM79 0v520h50v-520h-50z" />
    <glyph glyph-name="uni0458" unicode="&#x458;" horiz-adv-x="215" 
d="M-10 -177q-32 0 -59.5 8.5t-49.5 28.5l27 33q17 -14 37 -19t40 -5q19 0 37 7.5t32 21t23 32t9 40.5v550h50v-548q0 -33 -12.5 -60t-33.5 -47t-47 -31t-53 -11zM86 638v92h50v-92h-50z" />
    <glyph glyph-name="uni0459" unicode="&#x459;" horiz-adv-x="790" 
d="M8 43q25 1 45.5 15.5t37 52.5t29.5 103.5t24 168.5l14 137h289v-215h149q71 0 114.5 -40t43.5 -112q0 -70 -43.5 -111.5t-114.5 -41.5h-199v479h-192l-14 -118q-13 -106 -28.5 -175.5t-36.5 -110.5t-48 -58.5t-63 -18.5zM596 43q56 0 82 32t26 78q0 47 -25 77.5t-83 30.5
h-149v-218h149z" />
    <glyph glyph-name="uni045A" unicode="&#x45a;" horiz-adv-x="801" 
d="M79 520h49v-215h275v215h49v-215h155q71 0 114.5 -40t43.5 -112q0 -70 -44 -111.5t-114 -41.5h-204v261h-275v-261h-49v520zM607 43q56 0 82 32t26 78q0 47 -25 77.5t-83 30.5h-155v-218h155z" />
    <glyph glyph-name="uni045B" unicode="&#x45b;" horiz-adv-x="577" 
d="M454 259q0 96 -31.5 144t-102.5 48q-35 0 -65.5 -14t-55 -38.5t-43 -59t-27.5 -74.5v-265h-50v596h-74v40h74v94h50v-94h237v-40h-237v-252q25 70 79.5 111.5t125.5 41.5q89 0 129.5 -57.5t40.5 -171.5v-268h-50v259z" />
    <glyph glyph-name="uni045C" unicode="&#x45c;" horiz-adv-x="469" 
d="M233 629l-35 16l61 85h58zM383 520h58l-191 -250l210 -270h-57l-188 247h-87v-247h-49v520h49v-233h83z" />
    <glyph glyph-name="uni045D" unicode="&#x45d;" horiz-adv-x="573" 
d="M128 70l335 450h42v-520h-50v442l-329 -442h-47v520h49v-450zM198 730h57l62 -85l-34 -16z" />
    <glyph glyph-name="uni045E" unicode="&#x45e;" horiz-adv-x="540" 
d="M113 -175q6 -1 11 -1.5t10 -0.5q17 0 26 3t17 14q10 13 26.5 49t45.5 111l-232 520h52l207 -471l193 471h49l-286 -684q-14 -35 -35.5 -46t-59.5 -12q-6 0 -12 0.5t-12 1.5v45zM403 703q-2 -38 -33.5 -60.5t-93.5 -22.5q-63 0 -94.5 22.5t-33.5 60.5h33q1 -27 23.5 -41
t71.5 -14q48 0 69 13t25 42h33z" />
    <glyph glyph-name="uni045F" unicode="&#x45f;" horiz-adv-x="539" 
d="M244 0h-165v521h49v-477h282v477h49v-521h-166v-159h-49v159z" />
    <glyph glyph-name="uni0490" unicode="&#x490;" horiz-adv-x="524" 
d="M94 710h364l6 176h39v-222h-358v-664h-51v710z" />
    <glyph glyph-name="uni0491" unicode="&#x491;" horiz-adv-x="424" 
d="M79 520h283l6 159h34v-200h-274v-479h-49v520z" />
    <glyph glyph-name="uni04B0" unicode="&#x4b0;" horiz-adv-x="626" 
d="M480 242v-37h-142v-205h-51v205h-141v37h141v28l-278 440h57l247 -393l249 393h55l-279 -440v-28h142z" />
    <glyph glyph-name="uni04B1" unicode="&#x4b1;" horiz-adv-x="553" 
d="M250 0h-124v38h124v4l-238 478h57l207 -432l210 432h55l-240 -478v-4h125v-38h-125v-213h-51v213z" />
    <glyph glyph-name="Ddotbelow" unicode="&#x1e0c;" horiz-adv-x="713" 
d="M315 -151v90h46v-90h-46zM93 0v710h236q84 0 147.5 -28t105.5 -76t63 -112.5t21 -137.5q0 -81 -23.5 -146.5t-67.5 -112t-106.5 -72t-139.5 -25.5h-236zM615 356q0 67 -19 123.5t-55.5 97.5t-89.5 64t-122 23h-185v-618h185q70 0 123.5 23.5t89.5 65.5t54.5 98.5
t18.5 122.5z" />
    <glyph glyph-name="ddotbelow" unicode="&#x1e0d;" horiz-adv-x="615" 
d="M273 -151v90h46v-90h-46zM292 -10q-54 0 -100 22.5t-79.5 60t-52 86t-18.5 100.5q0 54 18 103t50 86t75.5 59t95.5 22q34 0 64 -10t56 -26.5t47 -38.5t36 -47v323h50v-660q0 -25 21 -25v-45q-6 -1 -10 -1.5t-8 -0.5q-20 0 -34 15.5t-14 32.5v58q-32 -52 -85.5 -83
t-111.5 -31zM301 35q27 0 58 11t57.5 30.5t45.5 44.5t22 54v171q-11 28 -31.5 53.5t-46.5 44t-56 29.5t-58 11q-45 0 -82 -19.5t-63 -51t-40 -72t-14 -83.5q0 -45 16 -85t44.5 -71t66 -49t81.5 -18z" />
    <glyph glyph-name="Hdotbelow" unicode="&#x1e24;" horiz-adv-x="735" 
d="M643 710v-710h-51v340h-448v-340h-51v710h51v-324h448v324h51zM348 -151v90h46v-90h-46z" />
    <glyph glyph-name="hdotbelow" unicode="&#x1e25;" horiz-adv-x="576" 
d="M503 0h-50v290q0 193 -129 193q-32 0 -62.5 -12t-57 -34t-46.5 -51.5t-30 -63.5v-322h-50v730h50v-334q32 61 88.5 97t121.5 36q43 0 74 -16t51.5 -46t30 -72.5t9.5 -95.5v-299zM270 -151v90h46v-90h-46z" />
    <glyph glyph-name="Ndotaccent" unicode="&#x1e44;" horiz-adv-x="773" 
d="M367 827v90h46v-90h-46zM144 614v-614h-51v710h39l498 -625v625h51v-710h-47z" />
    <glyph glyph-name="ndotaccent" unicode="&#x1e45;" horiz-adv-x="576" 
d="M267 640v90h46v-90h-46zM503 0h-50v290q0 101 -28.5 147t-90.5 46q-33 0 -65.5 -12t-60.5 -34t-49 -51.5t-31 -63.5v-322h-50v520h47v-124q16 30 39.5 54.5t53 42t62.5 27t68 9.5q85 0 120 -59.5t35 -170.5v-299z" />
    <glyph glyph-name="Rdotbelow" unicode="&#x1e5a;" horiz-adv-x="649" 
d="M93 0v710h295q45 0 83 -19t65.5 -50.5t43 -71t15.5 -79.5q0 -39 -12 -75.5t-34 -65.5t-53 -48t-68 -25l177 -276h-59l-172 268h-230v-268h-51zM144 315h249q34 0 62 15t48 39.5t30.5 56t10.5 64.5q0 34 -12.5 65.5t-34 55.5t-50 38.5t-61.5 14.5h-242v-349zM303 -151v90
h46v-90h-46z" />
    <glyph glyph-name="rdotbelow" unicode="&#x1e5b;" horiz-adv-x="341" 
d="M324 475q-70 -2 -122.5 -41.5t-73.5 -108.5v-325h-50v520h48v-128q27 55 71.5 89.5t95.5 39.5q10 1 18 1h13v-47zM80 -151v90h46v-90h-46z" />
    <glyph glyph-name="Sdotbelow" unicode="&#x1e62;" horiz-adv-x="605" 
d="M506 592q-69 77 -195 77q-104 0 -151.5 -39.5t-47.5 -106.5q0 -34 12 -56.5t37.5 -38.5t64.5 -27t94 -23q57 -12 103.5 -26.5t79 -36.5t50 -54t17.5 -79t-18.5 -82t-52 -58.5t-80 -35.5t-103.5 -12q-166 0 -281 106l27 41q45 -47 110 -74.5t146 -27.5q93 0 145.5 34
t52.5 103q0 35 -14 59.5t-41.5 42.5t-69.5 31t-98 25q-57 12 -100.5 25.5t-73 34t-44.5 49.5t-15 73q0 48 18.5 85t51.5 62.5t79 38.5t102 13q69 0 123 -20.5t98 -62.5zM286 -151v90h46v-90h-46z" />
    <glyph glyph-name="sdotbelow" unicode="&#x1e63;" horiz-adv-x="481" 
d="M243 -10q-60 0 -115 20t-96 60l25 34q42 -38 87 -56t99 -18q68 0 109.5 28.5t41.5 79.5q0 24 -10.5 40.5t-31.5 28t-52 20.5t-72 19q-44 10 -76.5 20t-53.5 24t-31.5 34t-10.5 51q0 39 15 68t41.5 48t61 28.5t73.5 9.5q61 0 108 -20.5t73 -52.5l-28 -27q-26 30 -67.5 45
t-88.5 15q-29 0 -54.5 -6t-44.5 -19t-30 -33.5t-11 -48.5q0 -23 7.5 -37t24 -24t42.5 -17.5t62 -16.5q49 -12 87 -23t63.5 -27t39 -38t13.5 -56q0 -70 -54.5 -111.5t-145.5 -41.5zM216 -151v90h46v-90h-46z" />
    <glyph glyph-name="Tdotbelow" unicode="&#x1e6c;" horiz-adv-x="606" 
d="M279 -151v90h46v-90h-46zM589 664h-260v-664h-51v664h-260v46h571v-46z" />
    <glyph glyph-name="tdotbelow" unicode="&#x1e6d;" horiz-adv-x="320" 
d="M171 -151v90h46v-90h-46zM310 25q-4 -2 -13.5 -7.5t-24 -10.5t-32.5 -9t-39 -4t-39.5 6t-32.5 18t-22 29t-8 40v392h-73v41h73v178h50v-178h121v-41h-121v-380q0 -29 20 -43.5t45 -14.5q31 0 53.5 10.5t27.5 13.5z" />
    <glyph glyph-name="Wgrave" unicode="&#x1e80;" horiz-adv-x="1043" 
d="M365 705h50l106 -258l106 258h50l-125 -299l149 -346l272 650h56l-304 -710h-47l-156 365l-157 -365h-47l-303 710h55l273 -650l147 346zM437 918h57l62 -85l-34 -16z" />
    <glyph glyph-name="wgrave" unicode="&#x1e81;" horiz-adv-x="806" 
d="M737 520h50l-225 -520h-42l-117 275l-117 -275h-42l-225 520h49l199 -465l109 256l-88 208h43l72 -172l71 172h44l-88 -208l109 -256zM319 730h57l62 -85l-34 -16z" />
    <glyph glyph-name="Wacute" unicode="&#x1e82;" horiz-adv-x="1043" 
d="M520 816l-35 16l61 85h58zM365 705h50l106 -258l106 258h50l-125 -299l149 -346l272 650h56l-304 -710h-47l-156 365l-157 -365h-47l-303 710h55l273 -650l147 346z" />
    <glyph glyph-name="wacute" unicode="&#x1e83;" horiz-adv-x="806" 
d="M402 629l-35 16l61 85h58zM737 520h50l-225 -520h-42l-117 275l-117 -275h-42l-225 520h49l199 -465l109 256l-88 208h43l72 -172l71 172h44l-88 -208l109 -256z" />
    <glyph glyph-name="Wdieresis" unicode="&#x1e84;" horiz-adv-x="1043" 
d="M431 828v88h44v-88h-44zM567 828v88h44v-88h-44zM365 705h50l106 -258l106 258h50l-125 -299l149 -346l272 650h56l-304 -710h-47l-156 365l-157 -365h-47l-303 710h55l273 -650l147 346z" />
    <glyph glyph-name="wdieresis" unicode="&#x1e85;" horiz-adv-x="806" 
d="M313 640v88h44v-88h-44zM449 640v88h44v-88h-44zM737 520h50l-225 -520h-42l-117 275l-117 -275h-42l-225 520h49l199 -465l109 256l-88 208h43l72 -172l71 172h44l-88 -208l109 -256z" />
    <glyph glyph-name="Zdotbelow" unicode="&#x1e92;" horiz-adv-x="627" 
d="M30 42l505 622h-498v46h558v-42l-501 -622h499v-46h-563v42zM298 -151v90h46v-90h-46z" />
    <glyph glyph-name="zdotbelow" unicode="&#x1e93;" horiz-adv-x="490" 
d="M32 36l368 445h-362v39h418v-36l-367 -445h365v-39h-422v36zM222 -151v90h46v-90h-46z" />
    <glyph glyph-name="Edotbelow" unicode="&#x1eb8;" 
d="M566 46v-46h-473v710h464v-46h-413v-279h361v-44h-361v-295h422zM308 -151v90h46v-90h-46z" />
    <glyph glyph-name="edotbelow" unicode="&#x1eb9;" horiz-adv-x="583" 
d="M299 -10q-55 0 -102 21.5t-81.5 59t-54 86.5t-19.5 105q0 55 19.5 103.5t53.5 85t80.5 57.5t100.5 21q55 0 102 -21.5t81 -58t53 -85t19 -102.5v-12q0 -8 -1 -10h-456q3 -45 21 -83.5t45.5 -66.5t63.5 -44t77 -16q27 0 53 7.5t48.5 20.5t40 31.5t27.5 40.5l44 -12
q-11 -28 -32.5 -51.5t-50 -40.5t-62.5 -26.5t-70 -9.5zM503 280q-3 46 -20.5 84t-45 65.5t-63.5 43t-77 15.5t-77 -15.5t-63.5 -43t-44 -66t-19.5 -83.5h410zM276 -151v90h46v-90h-46z" />
    <glyph glyph-name="Etilde" unicode="&#x1ebc;" 
d="M566 46v-46h-473v710h464v-46h-413v-279h361v-44h-361v-295h422zM401 834q-22 0 -39 6t-31 13.5t-27.5 14t-28.5 6.5q-17 0 -27 -7t-15 -15.5t-7 -16t-2 -9.5h-34q0 4 3 17.5t12.5 28t26 26t43.5 11.5q20 0 35.5 -6.5t29.5 -14t28.5 -13.5t33.5 -6q20 0 31.5 7t17 15.5
t7 16t1.5 9.5h34q0 -5 -3.5 -18.5t-13 -27.5t-27.5 -25.5t-48 -11.5z" />
    <glyph glyph-name="etilde" unicode="&#x1ebd;" horiz-adv-x="583" 
d="M299 -10q-55 0 -102 21.5t-81.5 59t-54 86.5t-19.5 105q0 55 19.5 103.5t53.5 85t80.5 57.5t100.5 21q55 0 102 -21.5t81 -58t53 -85t19 -102.5v-12q0 -8 -1 -10h-456q3 -45 21 -83.5t45.5 -66.5t63.5 -44t77 -16q27 0 53 7.5t48.5 20.5t40 31.5t27.5 40.5l44 -12
q-11 -28 -32.5 -51.5t-50 -40.5t-62.5 -26.5t-70 -9.5zM503 280q-3 46 -20.5 84t-45 65.5t-63.5 43t-77 15.5t-77 -15.5t-63.5 -43t-44 -66t-19.5 -83.5h410zM356 647q-22 0 -39 6t-31 13.5t-27.5 14t-28.5 6.5q-17 0 -27 -7t-15 -15.5t-7 -16t-2 -9.5h-34q0 4 3 17.5
t12.5 28t26 26t43.5 11.5q20 0 35.5 -6.5t29.5 -14t28.5 -13.5t33.5 -6q20 0 31.5 7t17 15.5t7 16t1.5 9.5h34q0 -5 -3.5 -18.5t-13 -27.5t-27.5 -25.5t-48 -11.5z" />
    <glyph glyph-name="Idotbelow" unicode="&#x1eca;" horiz-adv-x="237" 
d="M93 0v710h51v-710h-51zM94 -151v90h46v-90h-46z" />
    <glyph glyph-name="idotbelow" unicode="&#x1ecb;" horiz-adv-x="207" 
d="M78 0v520h50v-520h-50zM78 638v92h50v-92h-50zM80 -151v90h46v-90h-46z" />
    <glyph glyph-name="Odotbelow" unicode="&#x1ecc;" horiz-adv-x="753" 
d="M353 -151v90h46v-90h-46zM376 -5q-74 0 -135 31t-105 81t-68 115t-24 133q0 71 25.5 136t70 115t105.5 79.5t132 29.5q74 0 135.5 -31.5t105 -82.5t67.5 -115.5t24 -130.5q0 -72 -25.5 -137t-70 -114.5t-105.5 -79t-132 -29.5zM95 355q0 -61 20.5 -117.5t58 -100
t89.5 -69.5t114 -26q64 0 115.5 27t88 71.5t56.5 100.5t20 114q0 61 -21 117.5t-58.5 100t-88.5 69.5t-112 26q-64 0 -116 -27t-89 -71.5t-57 -100.5t-20 -114z" />
    <glyph glyph-name="odotbelow" unicode="&#x1ecd;" horiz-adv-x="592" 
d="M270 -151v90h46v-90h-46zM296 -10q-55 0 -101.5 21.5t-80.5 58.5t-53 86t-19 103q0 55 19.5 104t53.5 86t80.5 58.5t100.5 21.5t100 -21.5t80.5 -58.5t54 -86t19.5 -104q0 -54 -19.5 -103t-53.5 -86t-80.5 -58.5t-100.5 -21.5zM92 257q0 -46 16 -86.5t43.5 -70.5
t64.5 -47.5t79 -17.5t79 17.5t65 48.5t44 71.5t16 87.5q0 46 -16 86.5t-44 71t-64.5 48.5t-78.5 18t-79 -18t-64.5 -49t-44 -72.5t-16.5 -87.5z" />
    <glyph glyph-name="Udotbelow" unicode="&#x1ee4;" horiz-adv-x="756" 
d="M378 42q72 0 119.5 27t75 71t39 100t11.5 113v357h51v-357q0 -71 -15.5 -136t-50.5 -114.5t-91 -78.5t-138 -29q-85 0 -142 30.5t-91.5 81t-49 114.5t-14.5 132v357h51v-357q0 -59 11.5 -115t40 -99.5t75.5 -70t118 -26.5zM358 -151v90h46v-90h-46z" />
    <glyph glyph-name="udotbelow" unicode="&#x1ee5;" horiz-adv-x="587" 
d="M239 -10q-166 0 -166 230v300h50v-293q0 -192 131 -192q33 0 64 11.5t58 32t47.5 49.5t32.5 64v328h50v-450q0 -25 21 -25v-45q-5 -1 -9 -1h-6q-20 0 -35.5 12.5t-15.5 33.5v78q-34 -63 -93.5 -98t-128.5 -35zM260 -151v90h46v-90h-46z" />
    <glyph glyph-name="Ygrave" unicode="&#x1ef2;" horiz-adv-x="647" 
d="M75 710l248 -393l249 393h57l-280 -442v-268h-51v270l-279 440h56zM239 918h57l62 -85l-34 -16z" />
    <glyph glyph-name="ygrave" unicode="&#x1ef3;" horiz-adv-x="540" 
d="M113 -176q5 -1 15 -1t18.5 1t16.5 5q6 3 11 8.5t14 22.5t23 50l38 90l-232 520h52l207 -471l193 471h49l-285 -684q-11 -28 -35.5 -43.5t-66.5 -15.5h-9q-4 0 -9 1v46zM192 730h57l62 -85l-34 -16z" />
    <glyph glyph-name="Ytilde" unicode="&#x1ef8;" horiz-adv-x="647" 
d="M75 710l248 -393l249 393h57l-280 -442v-268h-51v270l-279 440h56zM384 834q-22 0 -39 6t-31 13.5t-27.5 14t-28.5 6.5q-17 0 -27 -7t-15 -15.5t-7 -16t-2 -9.5h-34q0 4 3 17.5t12.5 28t26 26t43.5 11.5q20 0 35.5 -6.5t29.5 -14t28.5 -13.5t33.5 -6q20 0 31.5 7t17 15.5
t7 16t1.5 9.5h34q0 -5 -3.5 -18.5t-13 -27.5t-27.5 -25.5t-48 -11.5z" />
    <glyph glyph-name="ytilde" unicode="&#x1ef9;" horiz-adv-x="540" 
d="M113 -176q5 -1 15 -1t18.5 1t16.5 5q6 3 11 8.5t14 22.5t23 50l38 90l-232 520h52l207 -471l193 471h49l-285 -684q-11 -28 -35.5 -43.5t-66.5 -15.5h-9q-4 0 -9 1v46zM337 647q-22 0 -39 6t-31 13.5t-27.5 14t-28.5 6.5q-17 0 -27 -7t-15 -15.5t-7 -16t-2 -9.5h-34
q0 4 3 17.5t12.5 28t26 26t43.5 11.5q20 0 35.5 -6.5t29.5 -14t28.5 -13.5t33.5 -6q20 0 31.5 7t17 15.5t7 16t1.5 9.5h34q0 -5 -3.5 -18.5t-13 -27.5t-27.5 -25.5t-48 -11.5z" />
    <glyph glyph-name="uni2000" unicode="&#x2000;" horiz-adv-x="468" 
 />
    <glyph glyph-name="uni2001" unicode="&#x2001;" horiz-adv-x="936" 
 />
    <glyph glyph-name="enspace" unicode="&#x2002;" horiz-adv-x="573" 
 />
    <glyph glyph-name="emspace" unicode="&#x2003;" horiz-adv-x="912" 
 />
    <glyph glyph-name="uni2004" unicode="&#x2004;" horiz-adv-x="312" 
 />
    <glyph glyph-name="uni2005" unicode="&#x2005;" horiz-adv-x="234" 
 />
    <glyph glyph-name="uni2006" unicode="&#x2006;" horiz-adv-x="156" 
 />
    <glyph glyph-name="uni2007" unicode="&#x2007;" horiz-adv-x="156" 
 />
    <glyph glyph-name="uni2008" unicode="&#x2008;" horiz-adv-x="117" 
 />
    <glyph glyph-name="uni2009" unicode="&#x2009;" horiz-adv-x="187" 
 />
    <glyph glyph-name="uni200A" unicode="&#x200a;" horiz-adv-x="52" 
 />
    <glyph glyph-name="uni2010" unicode="&#x2010;" horiz-adv-x="422" 
d="M67 249v46h288v-46h-288z" />
    <glyph glyph-name="uni2011" unicode="&#x2011;" horiz-adv-x="422" 
d="M67 249v46h288v-46h-288z" />
    <glyph glyph-name="figuredash" unicode="&#x2012;" horiz-adv-x="422" 
d="M67 249v46h288v-46h-288z" />
    <glyph glyph-name="endash" unicode="&#x2013;" horiz-adv-x="559" 
d="M67 249v46h425v-46h-425z" />
    <glyph glyph-name="emdash" unicode="&#x2014;" horiz-adv-x="892" 
d="M67 249v46h758v-46h-758z" />
    <glyph glyph-name="quoteleft" unicode="&#x2018;" horiz-adv-x="185" 
d="M114 730l-15 -99h19v-91h-52v91l21 99h27z" />
    <glyph glyph-name="quoteright" unicode="&#x2019;" horiz-adv-x="180" 
d="M71 540l15 99h-19v91h52v-91l-21 -99h-27z" />
    <glyph glyph-name="quotesinglbase" unicode="&#x201a;" horiz-adv-x="238" 
d="M97 -93l15 93h-18v92h51v-92l-21 -93h-27z" />
    <glyph glyph-name="quotedblleft" unicode="&#x201c;" horiz-adv-x="291" 
d="M114 730l-15 -99h19v-91h-52v91l21 99h27zM220 730l-15 -99h19v-91h-52v91l21 99h27z" />
    <glyph glyph-name="quotedblright" unicode="&#x201d;" horiz-adv-x="286" 
d="M71 540l15 99h-19v91h52v-91l-21 -99h-27zM176 540l15 99h-19v91h52v-91l-21 -99h-27z" />
    <glyph glyph-name="quotedblbase" unicode="&#x201e;" horiz-adv-x="338" 
d="M97 -93l15 93h-18v92h51v-92l-21 -93h-27zM197 -93l15 93h-18v92h51v-92l-21 -93h-27z" />
    <glyph glyph-name="dagger" unicode="&#x2020;" horiz-adv-x="393" 
d="M173 -130v378h-132v46h132v481h48v-481h131v-46h-131v-378h-48z" />
    <glyph glyph-name="daggerdbl" unicode="&#x2021;" horiz-adv-x="398" 
d="M176 -130v305h-132v46h132v111h-132v46h132v397h48v-397h131v-46h-131v-111h131v-46h-131v-305h-48z" />
    <glyph glyph-name="bullet" unicode="&#x2022;" horiz-adv-x="347" 
d="M259 345q0 -36 -25 -61t-60 -25q-18 0 -33.5 6.5t-27 18.5t-18.5 27.5t-7 33.5q0 17 7 32.5t18.5 27t27 18.5t33.5 7t33.5 -7t27 -18.5t18 -27t6.5 -32.5z" />
    <glyph glyph-name="ellipsis" unicode="&#x2026;" horiz-adv-x="416" 
d="M67 0v85h44v-85h-44zM187 0v85h43v-85h-43zM306 0v85h44v-85h-44z" />
    <glyph glyph-name="uni202F" unicode="&#x202f;" horiz-adv-x="187" 
 />
    <glyph glyph-name="perthousand" unicode="&#x2030;" horiz-adv-x="1039" 
d="M194 437q-30 0 -56.5 11t-46 30t-31 45t-11.5 55q0 30 11.5 55.5t31 45t46 30.5t56.5 11t56.5 -11t46 -30.5t31 -45t11.5 -55.5q0 -29 -11.5 -55t-31 -45t-46 -30t-56.5 -11zM194 469q22 0 41.5 9t33.5 24t22.5 35t8.5 41q0 23 -8.5 43t-23.5 35t-34 23.5t-40 8.5
q-22 0 -41 -9t-33.5 -24t-22.5 -35t-8 -42q0 -23 8.5 -42.5t22.5 -34.5t33.5 -23.5t40.5 -8.5zM516 -10q-30 0 -56.5 11t-46 30.5t-31 45t-11.5 55.5q0 29 11.5 55t31 45t46 30t56.5 11t56.5 -11t46 -30t31 -45t11.5 -55q0 -30 -11.5 -55.5t-31 -45t-46 -30.5t-56.5 -11z
M516 22q22 0 41.5 9t33.5 24t22.5 35t8.5 42t-8.5 42t-23.5 35t-34 23.5t-40 8.5q-22 0 -41 -9t-33.5 -24t-22.5 -35t-8 -41q0 -23 8 -43t22.5 -35t33.5 -23.5t41 -8.5zM860 -10q-30 0 -56.5 11t-46 30.5t-31 45t-11.5 55.5q0 29 11.5 55t31 45t46 30t56.5 11t56.5 -11
t46 -30t31 -45t11.5 -55q0 -30 -11.5 -55.5t-31 -45t-46 -30.5t-56.5 -11zM860 22q22 0 41.5 9t33.5 24t22.5 35t8.5 42t-8.5 42t-23.5 35t-34 23.5t-40 8.5q-22 0 -41 -9t-33.5 -24t-22.5 -35t-8 -41q0 -23 8 -43t22.5 -35t33.5 -23.5t41 -8.5zM65 21l279 344l274 348
l28 -23l-279 -345l-275 -348z" />
    <glyph glyph-name="guilsinglleft" unicode="&#x2039;" horiz-adv-x="351" 
d="M41 273l244 175v-45l-202 -144l202 -143v-45l-244 172v30z" />
    <glyph glyph-name="guilsinglright" unicode="&#x203a;" horiz-adv-x="351" 
d="M310 243l-245 -172v45l203 143l-203 144v45l245 -175v-30z" />
    <glyph glyph-name="fraction" unicode="&#x2044;" horiz-adv-x="141" 
d="M-220 21l279 344l274 348l28 -23l-279 -345l-275 -348z" />
    <glyph glyph-name="uni205F" unicode="&#x205f;" horiz-adv-x="234" 
 />
    <glyph glyph-name="zerosuperior" unicode="&#x2070;" horiz-adv-x="450" 
d="M226 412q-47 0 -82 18.5t-58 47.5t-35 64.5t-12 68.5q0 35 13 70.5t37.5 64t59 46.5t77.5 18q46 0 80.5 -19t57.5 -48.5t35 -64.5t12 -67q0 -36 -13 -72t-37 -64t-58 -45.5t-77 -17.5zM76 611q0 -29 10 -58t29 -52.5t47 -38.5t64 -15q37 0 65 16t47 40t28 53t9 55
q0 29 -10 58t-29 52.5t-47 38.5t-63 15q-38 0 -66 -16t-47 -40t-28 -53t-9 -55z" />
    <glyph glyph-name="foursuperior" unicode="&#x2074;" horiz-adv-x="377" 
d="M255 417v105h-230v33l240 255h25v-253h57v-35h-57v-105h-35zM65 557h190v202z" />
    <glyph glyph-name="fivesuperior" unicode="&#x2075;" horiz-adv-x="369" 
d="M186 666q31 0 58 -9t47.5 -25.5t32 -39.5t11.5 -50q0 -29 -12.5 -53t-34 -41t-50 -26.5t-60.5 -9.5q-48 0 -86.5 20.5t-58.5 55.5l25 18q18 -28 50 -44.5t72 -16.5q25 0 47 7t38 20t25 31t9 39q0 23 -10.5 40.5t-27 29.5t-37.5 18.5t-42 6.5q-32 0 -60.5 -13t-45.5 -35
h-34q3 16 11 49l17 68l15 66q7 29 9 38h218v-35h-191l-35 -142q19 17 45 25t55 8z" />
    <glyph glyph-name="sixsuperior" unicode="&#x2076;" horiz-adv-x="398" 
d="M364 544q0 -29 -12.5 -53.5t-34 -43t-51 -29t-62.5 -10.5q-36 0 -65.5 11.5t-51.5 32.5t-34 51.5t-12 69.5q0 120 46.5 178.5t120.5 58.5q45 0 80.5 -19t52.5 -54l-22 -22q-14 28 -44 45t-68 17q-59 0 -95 -45t-37 -127q15 32 52 51.5t80 19.5q33 0 61.5 -10t50 -28
t33.5 -42t12 -52zM205 441q26 0 48.5 8t39.5 22t27 32.5t10 39.5t-10 39.5t-27 33t-40 22.5t-49 8t-49 -8t-40 -22t-27 -32.5t-10 -39.5t10 -39.5t27.5 -33t40.5 -22.5t49 -8z" />
    <glyph glyph-name="sevensuperior" unicode="&#x2077;" horiz-adv-x="346" 
d="M279 775h-252v35h309l-231 -393h-41z" />
    <glyph glyph-name="eightsuperior" unicode="&#x2078;" horiz-adv-x="392" 
d="M352 525q0 -26 -12.5 -46.5t-34.5 -35.5t-50.5 -23t-60.5 -8q-34 0 -62.5 9t-49 25t-32 37t-11.5 44q0 19 8 35.5t21.5 29t30.5 21.5t35 15q-32 11 -55.5 31.5t-23.5 51.5q0 23 12.5 41.5t32.5 31t45 19.5t51 7q25 0 50.5 -6.5t45 -19t32 -31t12.5 -41.5q0 -31 -23.5 -52
t-56.5 -32q42 -12 69 -38.5t27 -64.5zM316 529q0 19 -11 34.5t-28.5 26.5t-39 16.5t-42.5 5.5q-22 0 -43.5 -6t-38.5 -17t-27.5 -26.5t-10.5 -34.5t11 -34t28.5 -25.5t39 -16t42.5 -5.5q22 0 43.5 6t38.5 16.5t27.5 25.5t10.5 34zM91 709q0 -16 9.5 -28.5t24.5 -21t33.5 -13
t36.5 -4.5t37 4.5t34 13t24.5 21t9.5 28.5t-9 28.5t-23.5 21.5t-33.5 13.5t-39 4.5t-39 -4.5t-33.5 -13.5t-23 -21.5t-8.5 -28.5z" />
    <glyph glyph-name="ninesuperior" unicode="&#x2079;" horiz-adv-x="398" 
d="M34 675q0 28 12.5 52.5t34 43t50.5 29t63 10.5q35 0 65 -11.5t51.5 -32.5t33.5 -51.5t12 -68.5q0 -121 -45.5 -179.5t-120.5 -58.5q-45 0 -81 19.5t-53 54.5l23 21q14 -28 44 -45t68 -17q59 0 95 45t36 127q-14 -32 -51 -52t-81 -20q-33 0 -61.5 10.5t-49.5 28.5
t-33 42.5t-12 52.5zM193 777q-26 0 -48.5 -8t-39.5 -22t-27 -32t-10 -39t10 -39.5t27.5 -33t40 -22.5t48.5 -8q25 0 48 8t40 22t27 32.5t10 39.5t-10 39.5t-27.5 32.5t-40.5 22t-48 8z" />
    <glyph glyph-name="zeroinferior" unicode="&#x2080;" horiz-adv-x="450" 
d="M226 -85q-47 0 -82 19t-58 48t-35 64t-12 68q0 36 13 71.5t37.5 64t59 46t77.5 17.5q46 0 80.5 -19t57.5 -48.5t35 -64.5t12 -67q0 -36 -13 -71.5t-37 -64t-58 -46t-77 -17.5zM76 114q0 -29 10 -58t29 -52.5t47 -38.5t64 -15q37 0 65 16t47 40t28 53t9 55q0 29 -10 58
t-29 52.5t-47 38.5t-63 15q-38 0 -66 -16t-47 -40t-28 -53t-9 -55z" />
    <glyph glyph-name="oneinferior" unicode="&#x2081;" horiz-adv-x="274" 
d="M253 -46v-34h-204v34h87v323q-6 -7 -17.5 -15t-26 -15.5t-29.5 -12.5t-28 -5v35q16 0 34 8t32.5 18t24.5 19l10 10h35v-365h82z" />
    <glyph glyph-name="twoinferior" unicode="&#x2082;" horiz-adv-x="383" 
d="M37 -80q0 76 32 116.5t94 63.5q22 9 46.5 17t44.5 19t33 27.5t13 40.5q0 32 -26 56t-80 24q-26 0 -46.5 -6t-36.5 -14.5t-27 -18.5t-18 -19l-24 25q3 4 14 15t30.5 22.5t47.5 20.5t65 9q71 0 105.5 -33.5t34.5 -81.5q0 -31 -14.5 -52t-35.5 -35t-46 -23l-46 -16
q-36 -11 -58 -26.5t-34 -32t-16 -33.5t-4 -31h255v-34h-303z" />
    <glyph glyph-name="threeinferior" unicode="&#x2083;" horiz-adv-x="387" 
d="M190 -85q-63 0 -105 25t-48 67l23 20q1 -14 11.5 -28t27.5 -25t40.5 -17.5t50.5 -6.5q25 0 47 5.5t38 15.5t25.5 24t9.5 31q0 37 -40.5 58t-108.5 21h-23v32h23q64 0 99.5 18t35.5 53t-32.5 56.5t-79.5 21.5q-42 0 -72.5 -16t-44.5 -42l-25 26q17 29 56 46.5t86 17.5
q32 0 59.5 -8.5t47.5 -23t31.5 -34t11.5 -42.5q0 -68 -90 -88q47 -7 74.5 -35t27.5 -66q0 -24 -12.5 -44t-33.5 -33.5t-49.5 -21t-60.5 -7.5z" />
    <glyph glyph-name="fourinferior" unicode="&#x2084;" horiz-adv-x="377" 
d="M255 -80v106h-230v32l240 255h25v-253h57v-34h-57v-106h-35zM65 60h190v202z" />
    <glyph glyph-name="fiveinferior" unicode="&#x2085;" horiz-adv-x="369" 
d="M186 169q31 0 58 -9t47.5 -25.5t32 -39.5t11.5 -51q0 -29 -12.5 -52.5t-34 -40.5t-50 -26.5t-60.5 -9.5q-48 0 -86.5 20.5t-58.5 54.5l25 19q18 -28 50 -44.5t72 -16.5q25 0 47 7t38 20t25 31t9 39q0 23 -10.5 40.5t-27 29.5t-37.5 18.5t-42 6.5q-32 0 -60.5 -13
t-45.5 -35h-34q3 16 11 49l17 69l15 65q7 29 9 38h218v-35h-191l-35 -142q19 17 45 25t55 8z" />
    <glyph glyph-name="sixinferior" unicode="&#x2086;" horiz-adv-x="398" 
d="M364 50q0 -28 -12.5 -52.5t-34 -43t-50.5 -29t-63 -10.5q-35 0 -65 11.5t-51.5 32.5t-33.5 51.5t-12 68.5q0 120 46 178.5t121 58.5q45 0 80.5 -19t52.5 -54l-23 -22q-13 28 -43 45t-68 17q-60 0 -95.5 -44.5t-36.5 -127.5q7 16 20.5 29.5t31 23t38 14.5t41.5 5
q33 0 62 -10.5t50 -28.5t33 -42t12 -52zM205 -53q26 0 48.5 8t39.5 22t27 32.5t10 39.5t-10 39.5t-27 33t-40 22.5t-49 8t-48.5 -8t-39.5 -22t-27 -32.5t-10 -39.5t10 -39.5t27.5 -33t40 -22.5t48.5 -8z" />
    <glyph glyph-name="seveninferior" unicode="&#x2087;" horiz-adv-x="345" 
d="M280 278h-253v35h309l-231 -393h-41z" />
    <glyph glyph-name="eightinferior" unicode="&#x2088;" horiz-adv-x="392" 
d="M352 28q0 -25 -12.5 -45.5t-34.5 -35.5t-50.5 -23t-60.5 -8q-34 0 -62.5 9t-49 24.5t-32 36.5t-11.5 44q0 19 8 35.5t21.5 29t30.5 22t35 14.5q-32 11 -55.5 31.5t-23.5 51.5q0 24 12.5 42t32.5 31t45 19.5t51 6.5q25 0 50.5 -6.5t45 -19t32 -31t12.5 -41.5
q0 -31 -23.5 -52t-56.5 -32q42 -12 69 -38.5t27 -64.5zM316 32q0 19 -11 34.5t-28.5 26.5t-39 16.5t-42.5 5.5q-22 0 -43.5 -6t-38.5 -17t-27.5 -26.5t-10.5 -34.5t11 -34t28.5 -25.5t39 -16t42.5 -5.5q22 0 43.5 6t38.5 16.5t27.5 25.5t10.5 34zM91 212q0 -16 9.5 -28.5
t24.5 -21t33.5 -13t36.5 -4.5t37 4.5t34 13.5t24.5 21.5t9.5 28.5q0 15 -9 27.5t-23.5 21.5t-33.5 13.5t-39 4.5t-39 -4.5t-33.5 -13.5t-23 -21.5t-8.5 -28.5z" />
    <glyph glyph-name="nineinferior" unicode="&#x2089;" horiz-adv-x="399" 
d="M34 181q0 28 12.5 52.5t34 43t51 29t62.5 10.5q36 0 65.5 -11.5t51.5 -32.5t34 -51.5t12 -68.5q0 -121 -46 -179t-121 -58q-45 0 -81 19t-53 54l24 22q13 -29 43 -45.5t68 -16.5q59 0 95 45t37 126q-15 -32 -51.5 -51.5t-80.5 -19.5q-33 0 -61.5 10.5t-50 28.5t-33.5 42
t-12 52zM193 284q-26 0 -48.5 -8t-39 -22t-26.5 -32.5t-10 -39.5t10 -39.5t27 -33t39.5 -22.5t48.5 -8t48.5 8t39.5 22t27 32.5t10 39.5t-10 39.5t-27 32.5t-40 22.5t-49 8.5z" />
    <glyph glyph-name="colonmonetary" unicode="&#x20a1;" horiz-adv-x="546" 
d="M230 0q-42 12 -76.5 37t-59.5 59.5t-39 76.5t-14 89q0 46 13.5 88t38.5 76t60 58.5t77 35.5v125h31v-119q18 3 37 3q7 0 14 -0.5t14 -1.5v118h31v-123q50 -11 88 -40.5t59 -73.5l-49 -16q-23 43 -66 67.5t-94 24.5q-42 0 -79 -17t-64.5 -47t-43.5 -70.5t-16 -87.5
t16.5 -88.5t44 -72t64.5 -48.5t79 -18q27 0 54 8t49.5 21t39 30.5t22.5 36.5l49 -14q-17 -44 -58 -76t-95 -44v-117h-31v112q-7 -1 -13.5 -1.5t-13.5 -0.5q-20 0 -38 3v-113h-31v120z" />
    <glyph glyph-name="franc" unicode="&#x20a3;" horiz-adv-x="613" 
d="M121 0v140h-93v42h93v528h462v-46h-411v-282h349v-44h-349v-156h147v-42h-147v-140h-51z" />
    <glyph glyph-name="lira" unicode="&#x20a4;" horiz-adv-x="478" 
d="M47 383h93l-22 40q-12 19 -21.5 38.5t-15.5 40.5t-6 44q0 35 14 65.5t37.5 53.5t55 36.5t67.5 13.5q53 0 99 -28.5t75 -76.5l-31 -31q-24 43 -63 68t-82 25q-26 0 -48.5 -10t-39 -27.5t-26.5 -40.5t-10 -50q0 -21 6 -41t16 -39.5t22 -39.5t23 -41h182v-34h-166
q13 -32 17 -63h160v-34h-157q0 -26 -5.5 -50t-18.5 -49t-34 -52t-51 -60q37 8 72 8q22 0 40 -3t35 -6.5t34 -6.5t35 -3q21 0 42.5 4.5t50.5 14.5l13 -40q-53 -24 -108 -24q-22 0 -41.5 3.5t-38.5 7.5t-38.5 7.5t-42.5 3.5t-51.5 -4t-51.5 -10l-15 37q37 37 61.5 67
t39.5 55.5t21 49.5t6 50h-109v34h106q-6 31 -20 63h-110v34z" />
    <glyph glyph-name="uni20A6" unicode="&#x20a6;" horiz-adv-x="833" 
d="M795 376h-84v-65h84v-34h-84v-277h-47l-221 277h-269v-277h-51v277h-85v34h85v65h-85v34h85v300h39l239 -300h259v300h51v-300h84v-34zM174 410h163l-163 204v-204zM660 85v192h-153zM174 311h242l-52 65h-190v-65zM480 311h180v65h-232z" />
    <glyph glyph-name="uni20A9" unicode="&#x20a9;" horiz-adv-x="1101" 
d="M43 364h148l-29 69h-119v34h104l-103 243h55l102 -243h292l-99 238h50l106 -258l106 258h50l-100 -238h294l102 243h56l-104 -243h104v-34h-119l-29 -69h148v-34h-163l-141 -330h-47l-156 365l-157 -365h-47l-141 330h-163v34zM730 60l113 270h-230zM372 60l114 270h-227
zM581 406l18 -42h258l29 69h-294zM507 433h-292l29 -69h257l18 42z" />
    <glyph glyph-name="Euro" unicode="&#x20ac;" horiz-adv-x="807" 
d="M144 410q8 58 34 113t68.5 97.5t100.5 68t130 25.5q95 0 162 -43.5t100 -111.5l-42 -24q-19 37 -44.5 62t-55 40.5t-61.5 22.5t-63 7q-60 0 -107.5 -21.5t-83 -57.5t-57.5 -82.5t-29 -95.5h359l-15 -34h-348v-19q0 -24 3 -46h323l-16 -34h-301q12 -50 37.5 -93
t61.5 -74.5t81 -50t95 -18.5q32 0 66 8t65 25t58 43.5t45 62.5l44 -21q-18 -40 -49 -71t-69 -52t-80.5 -31.5t-83.5 -10.5q-62 0 -115 23t-95 62t-70.5 90.5t-41.5 107.5h-117l15 34h96q-3 24 -3 49v16h-75l15 34h63z" />
    <glyph glyph-name="uni20B9" unicode="&#x20b9;" horiz-adv-x="450" 
d="M411 572h-95q17 -42 17 -82q0 -39 -12 -75.5t-34 -65.5t-52.5 -48t-67.5 -25l176 -276h-58l-202 315h48q35 0 63 15t47.5 39.5t30 56t10.5 64.5q0 22 -5.5 42.5t-14.5 39.5h-218v34h196q-22 26 -51.5 42t-63.5 16h-81v46h367v-34h-176q20 -14 36 -32t29 -38h111v-34z" />
    <glyph glyph-name="uni2113" unicode="&#x2113;" horiz-adv-x="292" 
d="M188 39q13 0 28.5 4.5t29.5 9.5l10 -40q-19 -8 -42.5 -13.5t-43.5 -5.5q-45 0 -69.5 25.5t-24.5 74.5v516q0 28 8 51.5t21.5 41t32 27.5t40.5 10q45 0 71.5 -36t26.5 -94q0 -39 -13 -84.5t-34.5 -91t-49.5 -87t-58 -71.5v-174q0 -29 18 -46t49 -17zM233 604
q0 45 -14 69.5t-40 24.5t-42 -24.5t-16 -63.5v-279q22 27 42.5 62.5t36 73t24.5 73.5t9 64z" />
    <glyph glyph-name="afii61352" unicode="&#x2116;" horiz-adv-x="1124" 
d="M144 614v-614h-51v710h39l498 -625v624h51v-709h-47zM926 351q-39 0 -71.5 14.5t-56.5 39.5t-37 57.5t-13 68.5q0 37 13.5 70t37 58t56 39.5t71.5 14.5t71.5 -14.5t56.5 -39.5t37.5 -58t13.5 -70q0 -36 -13.5 -68.5t-37 -57.5t-56.5 -39.5t-72 -14.5zM792 530
q0 -29 10.5 -55t28.5 -45.5t42.5 -30.5t52.5 -11t52.5 11.5t43 31t29 45.5t10.5 56t-10.5 56t-29 45t-43 30t-52.5 11q-27 0 -51.5 -11t-43 -30.5t-29 -46t-10.5 -56.5z" />
    <glyph glyph-name="servicemark" unicode="&#x2120;" horiz-adv-x="695" 
d="M572 710h51v-283h-38v226l-89 -184h-31l-90 184v-226h-37v283h49l93 -195zM246 650q-25 31 -74 31q-36 0 -52 -11.5t-16 -32.5q0 -20 15 -30t57 -19q48 -10 77 -28t29 -60q0 -38 -30 -57t-78 -19q-69 0 -118 43l19 29q36 -38 100 -38q32 0 49.5 9.5t17.5 29.5
q0 24 -17 35t-61 21q-48 10 -73.5 26.5t-25.5 54.5q0 39 29.5 60t77.5 21q57 0 94 -34z" />
    <glyph glyph-name="trademark" unicode="&#x2122;" horiz-adv-x="697" 
d="M288 674h-95v-247h-37v247h-95v38h227v-38zM569 710h50v-283h-37v226l-90 -184h-31l-89 184v-226h-38v283h50l92 -195z" />
    <glyph glyph-name="Omega" unicode="&#x2126;" horiz-adv-x="766" 
d="M47 47h201q-91 45 -142.5 130t-51.5 188q0 69 25 132.5t69 111.5t104 77t131 29t131 -29t104 -77t69 -111.5t25 -132.5q0 -51 -13.5 -99t-38.5 -89t-61.5 -74.5t-81.5 -55.5h202v-47h-289v47q55 13 98 45.5t72 76.5t44.5 95t15.5 101q0 56 -19 110.5t-55 97t-87.5 68.5
t-115.5 26t-115.5 -26t-87.5 -68.5t-55 -97t-19 -110.5q0 -50 15.5 -101t44.5 -95t72 -76.5t98 -45.5v-47h-289v47z" />
    <glyph glyph-name="estimated" unicode="&#x212e;" horiz-adv-x="606" 
d="M308 18q69 0 118 22t78 54l19 -21q-35 -35 -87.5 -59t-127.5 -24q-59 0 -107.5 22t-83 59t-53.5 86t-19 103q0 55 19.5 104t54 86t83 59t106.5 22t107 -22t83.5 -59.5t54 -87.5t19.5 -107h-440v-150q32 -41 77 -64t99 -23zM308 503q-54 0 -99 -23.5t-77 -65.5v-130h353
v129q-32 42 -78.5 66t-98.5 24z" />
    <glyph glyph-name="onethird" unicode="&#x2153;" horiz-adv-x="833" 
d="M93 21l279 344l274 348l28 -23l-279 -345l-275 -348zM256 367v-35h-194v35h82v322q-5 -6 -16.5 -14.5t-25 -16t-28 -12.5t-26.5 -5v35q16 0 32.5 8t30.5 18t23 19l10 10h36v-364h76zM641 -5q-63 0 -105 25t-48 67l23 20q1 -14 11.5 -28t27.5 -25t40.5 -17.5t50.5 -6.5
q25 0 47 5.5t38 15.5t25.5 24t9.5 31q0 37 -40.5 58t-108.5 21h-23v32h23q64 0 99.5 18t35.5 53t-32.5 56.5t-79.5 21.5q-42 0 -72.5 -16t-44.5 -42l-25 26q17 29 56 46.5t86 17.5q32 0 59.5 -8.5t47.5 -23t31.5 -34t11.5 -42.5q0 -68 -90 -88q47 -7 74.5 -35t27.5 -66
q0 -24 -12.5 -44t-33.5 -33.5t-49.5 -21t-60.5 -7.5z" />
    <glyph glyph-name="twothirds" unicode="&#x2154;" horiz-adv-x="846" 
d="M44 333q0 38 8 66.5t24 49.5t38.5 36t52.5 27q23 9 47 17t44 19.5t32.5 28t12.5 40.5q0 32 -25 56t-79 24q-26 0 -46 -6t-35.5 -14.5t-26.5 -18.5t-18 -18l-24 24q3 4 13.5 15t30 22.5t47.5 20.5t64 9q34 0 60 -9t43.5 -25t26 -36.5t8.5 -44.5q0 -30 -14 -51t-35 -35.5
t-45.5 -23.5t-44.5 -15q-36 -11 -58 -26.5t-34 -32.5t-16.5 -34t-4.5 -31h250v-34h-296zM146 21l279 344l274 348l28 -23l-279 -345l-275 -348zM653 -5q-63 0 -105 25t-48 67l23 20q1 -14 11.5 -28t27.5 -25t40.5 -17.5t50.5 -6.5q25 0 47 5.5t38 15.5t25.5 24t9.5 31
q0 37 -40.5 58t-108.5 21h-23v32h23q64 0 99.5 18t35.5 53t-32.5 56.5t-79.5 21.5q-42 0 -72.5 -16t-44.5 -42l-25 26q17 29 56 46.5t86 17.5q32 0 59.5 -8.5t47.5 -23t31.5 -34t11.5 -42.5q0 -68 -90 -88q47 -7 74.5 -35t27.5 -66q0 -24 -12.5 -44t-33.5 -33.5t-49.5 -21
t-60.5 -7.5z" />
    <glyph glyph-name="oneeighth" unicode="&#x215b;" horiz-adv-x="831" 
d="M104 21l279 344l274 348l28 -23l-279 -345l-275 -348zM255 367v-35h-194v35h82v322q-5 -6 -16.5 -14.5t-25 -16t-28 -12.5t-26.5 -5v35q16 0 32.5 8t30.5 18t23 19l10 10h36v-364h76zM796 108q0 -25 -12.5 -45.5t-34.5 -35.5t-50.5 -23t-60.5 -8q-34 0 -62.5 9t-49 24.5
t-32 36.5t-11.5 44q0 19 8 35.5t21.5 29t30.5 22t35 14.5q-32 11 -55.5 31.5t-23.5 51.5q0 24 12.5 42t32.5 31t45 19.5t51 6.5q25 0 50.5 -6.5t45 -19t32 -31t12.5 -41.5q0 -31 -23.5 -52t-56.5 -32q42 -12 69 -38.5t27 -64.5zM760 112q0 19 -11 34.5t-28.5 26.5t-39 16.5
t-42.5 5.5q-22 0 -43.5 -6t-38.5 -17t-27.5 -26.5t-10.5 -34.5t11 -34t28.5 -25.5t39 -16t42.5 -5.5q22 0 43.5 6t38.5 16.5t27.5 25.5t10.5 34zM535 292q0 -16 9.5 -28.5t24.5 -21t33.5 -13t36.5 -4.5t37 4.5t34 13.5t24.5 21.5t9.5 28.5q0 15 -9 27.5t-23.5 21.5
t-33.5 13.5t-39 4.5t-39 -4.5t-33.5 -13.5t-23 -21.5t-8.5 -28.5z" />
    <glyph glyph-name="threeeighths" unicode="&#x215c;" horiz-adv-x="837" 
d="M197 327q-63 0 -105 25t-48 67l23 21q1 -14 11.5 -28t27.5 -25t40.5 -17.5t50.5 -6.5q25 0 47 5.5t38 15.5t25.5 24t9.5 31q0 37 -40.5 58t-108.5 21h-23v32h23q64 0 99.5 17.5t35.5 52.5q0 18 -9 32t-24 24.5t-35.5 16t-43.5 5.5q-42 0 -72.5 -15.5t-44.5 -41.5l-25 26
q17 29 56 46.5t86 17.5q32 0 59.5 -8.5t47.5 -23t31.5 -34.5t11.5 -43q0 -69 -90 -87q47 -8 74.5 -35.5t27.5 -65.5q0 -24 -12.5 -44t-33.5 -34t-49.5 -21.5t-60.5 -7.5zM128 21l279 344l274 348l28 -23l-279 -345l-275 -348zM801 108q0 -25 -12.5 -45.5t-34.5 -35.5
t-50.5 -23t-60.5 -8q-34 0 -62.5 9t-49 24.5t-32 36.5t-11.5 44q0 19 8 35.5t21.5 29t30.5 22t35 14.5q-32 11 -55.5 31.5t-23.5 51.5q0 24 12.5 42t32.5 31t45 19.5t51 6.5q25 0 50.5 -6.5t45 -19t32 -31t12.5 -41.5q0 -31 -23.5 -52t-56.5 -32q42 -12 69 -38.5t27 -64.5z
M765 112q0 19 -11 34.5t-28.5 26.5t-39 16.5t-42.5 5.5q-22 0 -43.5 -6t-38.5 -17t-27.5 -26.5t-10.5 -34.5t11 -34t28.5 -25.5t39 -16t42.5 -5.5q22 0 43.5 6t38.5 16.5t27.5 25.5t10.5 34zM540 292q0 -16 9.5 -28.5t24.5 -21t33.5 -13t36.5 -4.5t37 4.5t34 13.5t24.5 21.5
t9.5 28.5q0 15 -9 27.5t-23.5 21.5t-33.5 13.5t-39 4.5t-39 -4.5t-33.5 -13.5t-23 -21.5t-8.5 -28.5z" />
    <glyph glyph-name="fiveeighths" unicode="&#x215d;" horiz-adv-x="837" 
d="M190 586q31 0 58 -9t47.5 -25.5t32 -39.5t11.5 -50q0 -29 -12.5 -53t-34 -41t-50 -26.5t-60.5 -9.5q-48 0 -86.5 20.5t-58.5 55.5l25 18q18 -28 50 -44.5t72 -16.5q25 0 47 7t38 20t25 31t9 39q0 23 -10.5 40.5t-27 29.5t-37.5 18.5t-42 6.5q-32 0 -60.5 -13t-45.5 -35
h-34q3 16 11 49l17 68l15 66q7 29 9 38h218v-35h-191l-35 -142q19 17 45 25t55 8zM120 21l279 344l274 348l28 -23l-279 -345l-275 -348zM802 108q0 -25 -12.5 -45.5t-34.5 -35.5t-50.5 -23t-60.5 -8q-34 0 -62.5 9t-49 24.5t-32 36.5t-11.5 44q0 19 8 35.5t21.5 29t30.5 22
t35 14.5q-32 11 -55.5 31.5t-23.5 51.5q0 24 12.5 42t32.5 31t45 19.5t51 6.5q25 0 50.5 -6.5t45 -19t32 -31t12.5 -41.5q0 -31 -23.5 -52t-56.5 -32q42 -12 69 -38.5t27 -64.5zM766 112q0 19 -11 34.5t-28.5 26.5t-39 16.5t-42.5 5.5q-22 0 -43.5 -6t-38.5 -17t-27.5 -26.5
t-10.5 -34.5t11 -34t28.5 -25.5t39 -16t42.5 -5.5q22 0 43.5 6t38.5 16.5t27.5 25.5t10.5 34zM541 292q0 -16 9.5 -28.5t24.5 -21t33.5 -13t36.5 -4.5t37 4.5t34 13.5t24.5 21.5t9.5 28.5q0 15 -9 27.5t-23.5 21.5t-33.5 13.5t-39 4.5t-39 -4.5t-33.5 -13.5t-23 -21.5
t-8.5 -28.5z" />
    <glyph glyph-name="seveneighths" unicode="&#x215e;" horiz-adv-x="827" 
d="M61 21l279 344l274 348l28 -23l-279 -345l-275 -348zM792 108q0 -25 -12.5 -45.5t-34.5 -35.5t-50.5 -23t-60.5 -8q-34 0 -62.5 9t-49 24.5t-32 36.5t-11.5 44q0 19 8 35.5t21.5 29t30.5 22t35 14.5q-32 11 -55.5 31.5t-23.5 51.5q0 24 12.5 42t32.5 31t45 19.5t51 6.5
q25 0 50.5 -6.5t45 -19t32 -31t12.5 -41.5q0 -31 -23.5 -52t-56.5 -32q42 -12 69 -38.5t27 -64.5zM756 112q0 19 -11 34.5t-28.5 26.5t-39 16.5t-42.5 5.5q-22 0 -43.5 -6t-38.5 -17t-27.5 -26.5t-10.5 -34.5t11 -34t28.5 -25.5t39 -16t42.5 -5.5q22 0 43.5 6t38.5 16.5
t27.5 25.5t10.5 34zM531 292q0 -16 9.5 -28.5t24.5 -21t33.5 -13t36.5 -4.5t37 4.5t34 13.5t24.5 21.5t9.5 28.5q0 15 -9 27.5t-23.5 21.5t-33.5 13.5t-39 4.5t-39 -4.5t-33.5 -13.5t-23 -21.5t-8.5 -28.5zM296 695h-252v35h309l-231 -393h-41z" />
    <glyph glyph-name="partialdiff" unicode="&#x2202;" horiz-adv-x="569" 
d="M249 -10q-48 0 -88 16t-69.5 43.5t-45.5 65t-16 80.5q0 48 19.5 91t53.5 76t79 52.5t95 19.5q67 0 117.5 -36.5t66.5 -103.5q4 24 6 59.5t2 62.5q0 71 -12.5 119.5t-35.5 78.5t-55.5 43t-72.5 13q-51 0 -95 -17.5t-67 -45.5l-29 30q33 39 85 58.5t110 19.5
q109 0 164.5 -74t55.5 -242q0 -101 -19.5 -177.5t-55 -128t-84.5 -77.5t-109 -26zM249 35q45 0 81.5 18t62 46.5t39 63.5t13.5 68t-13 62t-36 50.5t-53.5 34.5t-66.5 13q-39 0 -75 -15.5t-63 -42t-43.5 -61.5t-16.5 -74q0 -34 12.5 -63.5t35.5 -51.5t54 -35t69 -13z" />
    <glyph glyph-name="Delta" unicode="&#x2206;" horiz-adv-x="611" 
d="M606 41v-41h-601v41l280 669h42zM550 46l-244 602l-244 -602h488z" />
    <glyph glyph-name="product" unicode="&#x220f;" horiz-adv-x="661" 
d="M500 664h-337v-754h-48v754h-86v46h600v-46h-80v-754h-49v754z" />
    <glyph glyph-name="summation" unicode="&#x2211;" horiz-adv-x="513" 
d="M463 667h-360v-4l213 -294l-222 -316v-4h384v-49h-446v41l229 323l-224 309v37h426v-43z" />
    <glyph glyph-name="minus" unicode="&#x2212;" horiz-adv-x="541" 
d="M69 265v42h403v-42h-403z" />
    <glyph glyph-name="uni2215" unicode="&#x2215;" horiz-adv-x="578" 
d="M-8 23l562 690l32 -26l-562 -690z" />
    <glyph glyph-name="uni2219" unicode="&#x2219;" horiz-adv-x="177" 
d="M67 248v101h44v-101h-44z" />
    <glyph glyph-name="radical" unicode="&#x221a;" horiz-adv-x="432" 
d="M12 365h124l79 -316l124 741h48l-143 -790h-58l-92 326h-82v39z" />
    <glyph glyph-name="infinity" unicode="&#x221e;" horiz-adv-x="695" 
d="M202 517q29 0 51 -9t39.5 -25t30.5 -36.5t24 -43.5q12 23 25 43.5t30 36.5t39 25t52 9q35 0 63.5 -13t48.5 -35.5t30.5 -53t10.5 -64.5t-11.5 -64t-32.5 -52.5t-49 -35.5t-61 -13q-28 0 -49.5 9t-38.5 24.5t-30.5 35.5t-24.5 42q-11 -22 -23.5 -42t-30 -35.5t-40.5 -24.5
t-53 -9q-31 0 -59 13t-49.5 35.5t-34 53t-12.5 64.5t12 64t32.5 52.5t49 35.5t61.5 13zM202 228q24 0 43 10t34.5 26.5t27.5 38.5t23 47q-11 25 -23 48t-27 39.5t-34 26.5t-44 10q-20 0 -40 -7.5t-36 -22.5t-26 -38t-10 -54t10 -54.5t26 -39t36 -23t40 -7.5zM493 228
q20 0 40 7.5t35.5 23t25.5 39t10 54.5t-10 54t-25.5 38t-35.5 22.5t-40 7.5q-26 0 -45 -10.5t-33.5 -28t-26 -40.5t-21.5 -49q10 -24 22 -45.5t27 -37.5t34 -25.5t43 -9.5z" />
    <glyph glyph-name="integral" unicode="&#x222b;" horiz-adv-x="285" 
d="M98 710q-3 48 21 79t68 31q20 0 45 -6t45 -15l-14 -36q-14 6 -32.5 11t-29.5 5q-27 0 -43 -21t-14 -59l42 -756q3 -53 -21 -81.5t-68 -28.5q-20 0 -44 6t-44 15l13 36q14 -6 31.5 -11t30.5 -5q27 0 43 20.5t14 61.5z" />
    <glyph glyph-name="approxequal" unicode="&#x2248;" horiz-adv-x="429" 
d="M363 314q-13 -12 -31 -20.5t-43 -8.5t-45 6.5t-38 14.5t-34.5 14.5t-33.5 6.5t-28 -6t-19 -14l-25 28q11 13 28.5 22t42.5 9q22 0 41 -6.5t36 -14t35 -14t39 -6.5q35 0 51 15zM363 215q-13 -11 -31 -19t-43 -8t-45 6.5t-38 14.5t-34.5 14.5t-33.5 6.5t-28 -6t-19 -14
l-25 28q11 13 28.5 22.5t42.5 9.5q22 0 41 -6.5t36 -14.5t35 -14.5t39 -6.5q35 0 51 16z" />
    <glyph glyph-name="notequal" unicode="&#x2260;" horiz-adv-x="455" 
d="M78 344h169l65 111l31 -10l-59 -101h92v-38h-115l-35 -60h150v-38h-173l-65 -111l-31 9l60 102h-89v38h111l35 60h-146v38z" />
    <glyph glyph-name="lessequal" unicode="&#x2264;" horiz-adv-x="450" 
d="M68 70v43h314v-43h-314zM67 376l308 155v-49l-235 -120l235 -120v-51l-308 155v30z" />
    <glyph glyph-name="greaterequal" unicode="&#x2265;" horiz-adv-x="450" 
d="M68 70v43h314v-43h-314zM383 346l-308 -155v51l235 120l-235 120v49l308 -155v-30z" />
    <glyph glyph-name="lozenge" unicode="&#x25ca;" horiz-adv-x="491" 
d="M273 730l186 -364l-186 -366h-55l-186 366l186 364h55zM408 354l-166 335l-156 -314l165 -332z" />
    <glyph glyph-name="uni25FC" unicode="&#x25fc;" horiz-adv-x="520" 
d="M0 520h520v-520h-520v520z" />
    <glyph glyph-name="commaaccent" unicode="&#xf6c3;" horiz-adv-x="141" 
d="M57 -187l15 68h-16v70h49v-70l-21 -68h-27z" />
    <glyph glyph-name="s_t" unicode="&#xfb06;" horiz-adv-x="795" 
d="M785 25q-4 -2 -14 -7.5t-24.5 -10.5t-32 -9t-35.5 -4q-45 0 -75 24t-30 69v392h-73v41h73q0 62 -3.5 100.5t-14 60.5t-29.5 29.5t-51 7.5q-34 0 -56.5 -8t-36.5 -21.5t-20 -32.5t-6 -41q0 -30 8.5 -58t19 -49.5t19 -35t9.5 -15.5l-27 -28q-29 36 -68 48t-77 12
q-27 0 -53 -5t-46.5 -17.5t-33 -32.5t-12.5 -50q0 -34 15.5 -53.5t38.5 -30.5t49 -15t48 -6q33 -3 68 -9.5t64.5 -21t48.5 -40t19 -67.5q0 -41 -18 -70t-46.5 -47t-64 -26t-71.5 -8q-64 0 -118 23t-90 55l25 34q84 -72 184 -72q26 0 53 5.5t49 18.5t36 33t14 50
q0 34 -17 53.5t-42 29.5t-53.5 13.5t-51.5 5.5q-36 3 -70 10t-60 22t-41.5 40.5t-15.5 65.5q0 42 17 71t44 47t61 26t68 8q35 0 67 -7.5t56 -23.5l-13 28q-6 13 -11 26.5t-8 28t-3 33.5q0 27 8 51.5t26 43t48 29.5t74 11q51 0 79 -14.5t42 -43t17 -71.5t3 -100h121v-41h-121
v-380q0 -29 20 -43.5t47 -14.5q28 0 51 10.5t28 13.5z" />
    <glyph glyph-name="nonmarkingreturn" horiz-adv-x="0" 
 />
    <glyph glyph-name="NULL" horiz-adv-x="0" 
 />
    <glyph glyph-name="four.denominator" horiz-adv-x="377" 
d="M255 0v106h-230v32l240 255h25v-253h57v-34h-57v-106h-35zM65 140h190v202z" />
    <glyph glyph-name="one.numerator" horiz-adv-x="264" 
d="M243 367v-35h-194v35h82v322q-5 -6 -16.5 -14.5t-25 -16t-28 -12.5t-26.5 -5v35q16 0 32.5 8t30.5 18t23 19l10 10h36v-364h76z" />
    <glyph glyph-name="two.denominator" horiz-adv-x="383" 
d="M37 0q0 76 32 116.5t94 63.5q22 9 46.5 17t44 19t32.5 27.5t13 40.5q0 32 -25.5 54.5t-79.5 22.5q-26 0 -46 -6t-35.5 -14.5t-26.5 -18.5t-18 -19l-26 28q3 4 14 15t30.5 22.5t47.5 20.5t65 9q71 0 105.5 -33.5t34.5 -81.5q0 -31 -14 -52t-35.5 -35.5t-46 -24
t-45.5 -15.5q-36 -11 -57.5 -24.5t-33 -29.5t-14.5 -33t-3 -35h250v-34h-303z" />
    <glyph glyph-name="three.numerator" horiz-adv-x="386" 
d="M190 327q-63 0 -105 25t-48 67l23 21q1 -14 11.5 -28t27.5 -25t40.5 -17.5t50.5 -6.5q25 0 47 5.5t38 15.5t25.5 24t9.5 31q0 37 -40.5 58t-108.5 21h-23v32h23q64 0 99.5 17.5t35.5 52.5q0 18 -9 32t-24 24.5t-35.5 16t-43.5 5.5q-42 0 -72.5 -15.5t-44.5 -41.5l-25 26
q17 29 56 46.5t86 17.5q32 0 59.5 -8.5t47.5 -23t31.5 -34.5t11.5 -43q0 -69 -90 -87q47 -8 74.5 -35.5t27.5 -65.5q0 -24 -12.5 -44t-33.5 -34t-49.5 -21.5t-60.5 -7.5z" />
    <glyph glyph-name="caron.alt" horiz-adv-x="213" 
d="M84 629l-35 16l61 85h58z" />
    <glyph glyph-name="dotbelow" horiz-adv-x="146" 
d="M50 -151v90h46v-90h-46z" />
    <glyph glyph-name="three.denominator" horiz-adv-x="387" 
d="M190 -5q-63 0 -105 25t-48 67l23 20q1 -14 11.5 -28t27.5 -25t40.5 -17.5t50.5 -6.5q25 0 47 5.5t38 15.5t25.5 24t9.5 31q0 37 -40.5 58t-108.5 21h-23v32h23q64 0 99.5 18t35.5 53t-32.5 56.5t-79.5 21.5q-42 0 -72.5 -16t-44.5 -42l-25 26q17 29 56 46.5t86 17.5
q32 0 59.5 -8.5t47.5 -23t31.5 -34t11.5 -42.5q0 -68 -90 -88q47 -7 74.5 -35t27.5 -66q0 -24 -12.5 -44t-33.5 -33.5t-49.5 -21t-60.5 -7.5z" />
    <glyph glyph-name="two.numerator" horiz-adv-x="381" 
d="M37 333q0 38 8 66.5t24 49.5t39.5 36t53.5 27q23 9 47.5 17t44.5 19.5t33 28t13 40.5q0 32 -26 56t-80 24q-26 0 -46.5 -6t-36.5 -14.5t-27 -18.5t-18 -18l-24 24q3 4 14 15t30.5 22.5t47.5 20.5t65 9q35 0 61.5 -9t44 -25t26 -36.5t8.5 -44.5q0 -30 -14.5 -51
t-35.5 -35.5t-45.5 -23.5t-45.5 -15q-36 -11 -58.5 -26.5t-35 -32.5t-17 -34t-4.5 -31h254v-34h-300z" />
    <glyph glyph-name="eight.denominator" horiz-adv-x="392" 
d="M352 108q0 -25 -12.5 -45.5t-34.5 -35.5t-50.5 -23t-60.5 -8q-34 0 -62.5 9t-49 24.5t-32 36.5t-11.5 44q0 19 8 35.5t21.5 29t30.5 22t35 14.5q-32 11 -55.5 31.5t-23.5 51.5q0 24 12.5 42t32.5 31t45 19.5t51 6.5q25 0 50.5 -6.5t45 -19t32 -31t12.5 -41.5
q0 -31 -23.5 -52t-56.5 -32q42 -12 69 -38.5t27 -64.5zM316 112q0 19 -11 34.5t-28.5 26.5t-39 16.5t-42.5 5.5q-22 0 -43.5 -6t-38.5 -17t-27.5 -26.5t-10.5 -34.5t11 -34t28.5 -25.5t39 -16t42.5 -5.5q22 0 43.5 6t38.5 16.5t27.5 25.5t10.5 34zM91 292q0 -16 9.5 -28.5
t24.5 -21t33.5 -13t36.5 -4.5t37 4.5t34 13.5t24.5 21.5t9.5 28.5q0 15 -9 27.5t-23.5 21.5t-33.5 13.5t-39 4.5t-39 -4.5t-33.5 -13.5t-23 -21.5t-8.5 -28.5z" />
    <glyph glyph-name="five.numerator" horiz-adv-x="369" 
d="M186 586q31 0 58 -9t47.5 -25.5t32 -39.5t11.5 -50q0 -29 -12.5 -53t-34 -41t-50 -26.5t-60.5 -9.5q-48 0 -86.5 20.5t-58.5 55.5l25 18q18 -28 50 -44.5t72 -16.5q25 0 47 7t38 20t25 31t9 39q0 23 -10.5 40.5t-27 29.5t-37.5 18.5t-42 6.5q-32 0 -60.5 -13t-45.5 -35
h-34q3 16 11 49l17 68l15 66q7 29 9 38h218v-35h-191l-35 -142q19 17 45 25t55 8z" />
    <glyph glyph-name="seven.numerator" horiz-adv-x="346" 
d="M279 695h-252v35h309l-231 -393h-41z" />
    <glyph glyph-name="R.sc" horiz-adv-x="564" 
d="M88 0v545h248q37 0 69 -15t55 -39t36 -55t13 -62q0 -30 -10 -57t-28 -49t-43.5 -37t-55.5 -20l146 -211h-54l-141 203h-189v-203h-46zM134 245h204q28 0 51 11t39 29t25 41t9 48t-10 48.5t-27.5 41t-41 28t-50.5 10.5h-199v-257z" />
    </font>
</defs>
</svg>
